File Size181.2 MB (190,029,106 bytes)
DownloadClickNUpload | DiskoKosmiko | Go4Up
  • DownAce
  • FileFactory
  • KatFile
  • Oboom
  • OwnDrives
  • Share-Online
  • TusFiles
  • UploadGig
  • Uppit
  • UsersCloud
| Jheberg | MultiUp | OpenLoad | Sendspace | SolidFiles | ZippyShare
HashesCRC32: 5A9A0F70, MD5: E043D45E574713C4D56D3FCB0D82D005, SHA1: 86D60865A87918785E8C693635E30EE2E7F8D441, SHA256: 9A2C44D02CBF357251DE95A95278F55432FB8C5A7D97A596EF8EB79982E7F51C, ED2K: D5BC3A9C5471CFA3EC0AB0E78396601F
Screenshots
screenshotscreenshotscreenshotscreenshotscreenshot
SubtitlesAll Attachments | English [eng, SRT]
Additional Info
General
Unique ID                                : 228658020815132072892215784884714116037 (0xAC05EED4948FE687AF96458612B893C5)
Complete name                            : [AnimeRG] Pokémon - 0054 - Princess VS. Princess [1080p] [x265] [pseudo].mkv
Format                                   : Matroska
Format version                           : Version 4 / Version 2
File size                                : 181 MiB
Duration                                 : 21 min 52 s
Overall bit rate                         : 1 158 kb/s
Movie name                               : Pokémon S01E52 - Princess vs. Princess
Encoded date                             : UTC 2018-06-14 18:32:31
Writing application                      : mkvmerge v15.0.0 ('Duel with the Devil') 64-bit
Writing library                          : libebml v1.3.5 + libmatroska v1.4.5
Writing frontend                         : StaxRip v1.7.0.0

Video
ID                                       : 1
Format                                   : HEVC
Format/Info                              : High Efficiency Video Coding
Format profile                           : Main@L5.1@Main
Codec ID                                 : V_MPEGH/ISO/HEVC
Duration                                 : 21 min 52 s
Bit rate                                 : 1 062 kb/s
Width                                    : 1 440 pixels
Height                                   : 1 088 pixels
Display aspect ratio                     : 4:3
Frame rate mode                          : Constant
Frame rate                               : 30.000 FPS
Standard                                 : NTSC
Color space                              : YUV
Chroma subsampling                       : 4:2:0
Bit depth                                : 8 bits
Bits/(Pixel*Frame)                       : 0.023
Stream size                              : 166 MiB (92%)
Default                                  : Yes
Forced                                   : No
Color range                              : Limited
Color primaries                          : BT.709
Transfer characteristics                 : BT.709
Matrix coefficients                      : BT.709

Audio
ID                                       : 2
Format                                   : AAC
Format/Info                              : Advanced Audio Codec
Format profile                           : LC
Codec ID                                 : A_AAC
Duration                                 : 21 min 52 s
Bit rate                                 : 93.7 kb/s
Channel(s)                               : 2 channels
Channel positions                        : Front: L R
Sampling rate                            : 48.0 kHz
Frame rate                               : 46.875 FPS (1024 spf)
Compression mode                         : Lossy
Delay relative to video                  : 20 ms
Stream size                              : 14.7 MiB (8%)
Title                                    : English Stereo
Language                                 : English
Default                                  : Yes
Forced                                   : No

Text
ID                                       : 3
Format                                   : UTF-8
Codec ID                                 : S_TEXT/UTF8
Codec ID/Info                            : UTF-8 Plain Text
Duration                                 : 21 min 48 s
Bit rate                                 : 97 b/s
Count of elements                        : 516
Stream size                              : 15.5 KiB (0%)
Title                                    : English
Language                                 : English
Default                                  : No
Forced                                   : No

Other Files in this Torrent
[AnimeRG] Pokémon - 0054 - Princess VS. Princess [1080p] [x265] [pseudo].mkv
beta
Anime DDL+NZB mirror
Current Time: 14/07/2024 10:36



About/FAQs

Discord