File Size218.5 MB (229,086,886 bytes)
DownloadClickNUpload | DiskoKosmiko | Go4Up
  • DownAce
  • FileFactory
  • KatFile
  • Oboom
  • OwnDrives
  • Share-Online
  • TusFiles
  • UploadGig
  • Uppit
  • UsersCloud
| Jheberg | MultiUp | OpenLoad | Sendspace | SolidFiles | ZippyShare
HashesCRC32: 27986597, MD5: D8FC55CF9DA04CCEB60DB046C9261741, SHA1: D122586B6FBFFA66F25C0001CF150B29ED250A4B, SHA256: C08282146F3FB9EC49805FF7A9E2A658FAA829824BBE94100B9D067072FDADB3, ED2K: C7D47921DA81C9A75A66EE409F5BCE31
Screenshots
screenshotscreenshotscreenshotscreenshotscreenshot
SubtitlesAll Attachments | English [eng, SRT]
Additional Info
General
Unique ID                                : 244904452178953567353542476441164013307 (0xB83EE1BD6AAE7C30A536458B84DD5EFB)
Complete name                            : [AnimeRG] Pokémon - 0055 - The Purr-fect Hero [1080p] [x265] [pseudo].mkv
Format                                   : Matroska
Format version                           : Version 4 / Version 2
File size                                : 218 MiB
Duration                                 : 21 min 52 s
Overall bit rate                         : 1 397 kb/s
Movie name                               : Pokémon S01E53 - The Purr-fect Hero
Encoded date                             : UTC 2018-06-14 18:44:52
Writing application                      : mkvmerge v15.0.0 ('Duel with the Devil') 64-bit
Writing library                          : libebml v1.3.5 + libmatroska v1.4.5
Writing frontend                         : StaxRip v1.7.0.0

Video
ID                                       : 1
Format                                   : HEVC
Format/Info                              : High Efficiency Video Coding
Format profile                           : Main@L5.1@Main
Codec ID                                 : V_MPEGH/ISO/HEVC
Duration                                 : 21 min 52 s
Bit rate                                 : 1 297 kb/s
Width                                    : 1 440 pixels
Height                                   : 1 088 pixels
Display aspect ratio                     : 4:3
Frame rate mode                          : Constant
Frame rate                               : 30.000 FPS
Standard                                 : NTSC
Color space                              : YUV
Chroma subsampling                       : 4:2:0
Bit depth                                : 8 bits
Bits/(Pixel*Frame)                       : 0.028
Stream size                              : 203 MiB (93%)
Default                                  : Yes
Forced                                   : No
Color range                              : Limited
Color primaries                          : BT.709
Transfer characteristics                 : BT.709
Matrix coefficients                      : BT.709

Audio
ID                                       : 2
Format                                   : AAC
Format/Info                              : Advanced Audio Codec
Format profile                           : LC
Codec ID                                 : A_AAC
Duration                                 : 21 min 52 s
Bit rate                                 : 96.0 kb/s
Channel(s)                               : 2 channels
Channel positions                        : Front: L R
Sampling rate                            : 48.0 kHz
Frame rate                               : 46.875 FPS (1024 spf)
Compression mode                         : Lossy
Delay relative to video                  : 20 ms
Stream size                              : 15.2 MiB (7%)
Title                                    : English Stereo
Language                                 : English
Default                                  : Yes
Forced                                   : No

Text
ID                                       : 3
Format                                   : UTF-8
Codec ID                                 : S_TEXT/UTF8
Codec ID/Info                            : UTF-8 Plain Text
Duration                                 : 21 min 47 s
Bit rate                                 : 93 b/s
Count of elements                        : 536
Stream size                              : 14.9 KiB (0%)
Title                                    : English
Language                                 : English
Default                                  : No
Forced                                   : No

Other Files in this Torrent
[AnimeRG] Pokémon - 0055 - The Purr-fect Hero [1080p] [x265] [pseudo].mkv
beta
Anime DDL+NZB mirror
Current Time: 16/07/2024 16:12



About/FAQs

Discord