File Size206.0 MB (216,036,539 bytes)
DownloadClickNUpload | DiskoKosmiko | Go4Up
  • DownAce
  • FileFactory
  • KatFile
  • Oboom
  • OwnDrives
  • Share-Online
  • TusFiles
  • UploadGig
  • Uppit
  • UsersCloud
| Jheberg | MultiUp | OpenLoad | Sendspace | SolidFiles | ZippyShare
HashesCRC32: 0BCF68F2, MD5: 416F3C9A2C7511E9DBFE451F22EE3990, SHA1: 031CF8CCDD39139A54ABC73E9B684B808B326C6C, SHA256: 76EB661A8BE4D927FFAA19E198A4D5F7813473FF6227F81A09111316F5DBC8AB, ED2K: 94386D17D9A739336E120D6F079B126F
Screenshots
screenshotscreenshotscreenshotscreenshotscreenshot
SubtitlesAll Attachments | English [eng, SRT], español [spa, SRT], español [spa, SRT], français [fre, SRT], Deutsch [ger, SRT], italiano [ita, SRT], português [por, SRT], português [por, SRT], polski [pol, SRT], Türkçe [tur, SRT], svenska [swe, SRT], svenska [swe, SRT], svenska [swe, SRT], suomi [fin, SRT], suomi [fin, SRT], Nederlands [dut, SRT], norsk [nob, SRT], norsk [nob, SRT], עברית [heb, SRT], العربية [ara, SRT], العربية [ara, SRT]
Additional Info
General
Unique ID                                : 199816862053119618079095512705829775840 (0x965353EAD7A3511AABA8F48E3BA129E0)
Complete name                            : [AnimeRG] Pokémon - 0033 - The Flame Pokémon-athon! [1080p] [x265] [pseudo].mkv
Format                                   : Matroska
Format version                           : Version 4 / Version 2
File size                                : 206 MiB
Duration                                 : 22 min 22 s
Overall bit rate                         : 1 288 kb/s
Encoded date                             : UTC 2018-06-14 04:23:43
Writing application                      : mkvmerge v15.0.0 ('Duel with the Devil') 64-bit
Writing library                          : libebml v1.3.5 + libmatroska v1.4.5
Writing frontend                         : StaxRip v1.7.0.0

Video
ID                                       : 1
Format                                   : HEVC
Format/Info                              : High Efficiency Video Coding
Format profile                           : Main@L5.1@Main
Codec ID                                 : V_MPEGH/ISO/HEVC
Duration                                 : 22 min 22 s
Bit rate                                 : 1 189 kb/s
Width                                    : 1 440 pixels
Height                                   : 1 080 pixels
Display aspect ratio                     : 4:3
Frame rate mode                          : Constant
Frame rate                               : 23.976 (24000/1001) FPS
Standard                                 : NTSC
Color space                              : YUV
Chroma subsampling                       : 4:2:0
Bit depth                                : 8 bits
Bits/(Pixel*Frame)                       : 0.032
Stream size                              : 190 MiB (92%)
Default                                  : Yes
Forced                                   : No
Color range                              : Limited
Color primaries                          : BT.709
Transfer characteristics                 : BT.709
Matrix coefficients                      : BT.709

Audio
ID                                       : 2
Format                                   : AAC
Format/Info                              : Advanced Audio Codec
Format profile                           : LC
Codec ID                                 : A_AAC
Duration                                 : 22 min 22 s
Bit rate                                 : 93.0 kb/s
Channel(s)                               : 2 channels
Channel positions                        : Front: L R
Sampling rate                            : 48.0 kHz
Frame rate                               : 46.875 FPS (1024 spf)
Compression mode                         : Lossy
Delay relative to video                  : 20 ms
Stream size                              : 14.9 MiB (7%)
Title                                    : English Stereo
Language                                 : English
Default                                  : Yes
Forced                                   : No

Text #1
ID                                       : 3
Format                                   : UTF-8
Codec ID                                 : S_TEXT/UTF8
Codec ID/Info                            : UTF-8 Plain Text
Duration                                 : 20 min 15 s
Bit rate                                 : 92 b/s
Count of elements                        : 441
Stream size                              : 13.7 KiB (0%)
Title                                    : English
Language                                 : English
Default                                  : No
Forced                                   : No

Text #2
ID                                       : 4
Format                                   : UTF-8
Codec ID                                 : S_TEXT/UTF8
Codec ID/Info                            : UTF-8 Plain Text
Duration                                 : 21 min 15 s
Bit rate                                 : 79 b/s
Count of elements                        : 440
Stream size                              : 12.4 KiB (0%)
Title                                    : español
Language                                 : Spanish
Default                                  : No
Forced                                   : No

Text #3
ID                                       : 5
Format                                   : UTF-8
Codec ID                                 : S_TEXT/UTF8
Codec ID/Info                            : UTF-8 Plain Text
Duration                                 : 21 min 22 s
Bit rate                                 : 88 b/s
Count of elements                        : 424
Stream size                              : 13.9 KiB (0%)
Title                                    : español
Language                                 : Spanish
Default                                  : No
Forced                                   : No

Text #4
ID                                       : 6
Format                                   : UTF-8
Codec ID                                 : S_TEXT/UTF8
Codec ID/Info                            : UTF-8 Plain Text
Duration                                 : 20 min 16 s
Bit rate                                 : 92 b/s
Count of elements                        : 373
Stream size                              : 13.8 KiB (0%)
Title                                    : français
Language                                 : French
Default                                  : No
Forced                                   : No

Text #5
ID                                       : 7
Format                                   : UTF-8
Codec ID                                 : S_TEXT/UTF8
Codec ID/Info                            : UTF-8 Plain Text
Duration                                 : 20 min 15 s
Bit rate                                 : 91 b/s
Count of elements                        : 423
Stream size                              : 13.6 KiB (0%)
Title                                    : Deutsch
Language                                 : German
Default                                  : No
Forced                                   : No

Text #6
ID                                       : 8
Format                                   : UTF-8
Codec ID                                 : S_TEXT/UTF8
Codec ID/Info                            : UTF-8 Plain Text
Duration                                 : 22 min 16 s
Bit rate                                 : 78 b/s
Count of elements                        : 321
Stream size                              : 12.7 KiB (0%)
Title                                    : italiano
Language                                 : Italian
Default                                  : No
Forced                                   : No

Text #7
ID                                       : 9
Format                                   : UTF-8
Codec ID                                 : S_TEXT/UTF8
Codec ID/Info                            : UTF-8 Plain Text
Duration                                 : 21 min 18 s
Bit rate                                 : 83 b/s
Count of elements                        : 441
Stream size                              : 13.1 KiB (0%)
Title                                    : português
Language                                 : Portuguese
Default                                  : No
Forced                                   : No

Text #8
ID                                       : 10
Format                                   : UTF-8
Codec ID                                 : S_TEXT/UTF8
Codec ID/Info                            : UTF-8 Plain Text
Duration                                 : 19 min 12 s
Bit rate                                 : 96 b/s
Count of elements                        : 423
Stream size                              : 13.6 KiB (0%)
Title                                    : português
Language                                 : Portuguese
Default                                  : No
Forced                                   : No

Text #9
ID                                       : 11
Format                                   : UTF-8
Codec ID                                 : S_TEXT/UTF8
Codec ID/Info                            : UTF-8 Plain Text
Duration                                 : 22 min 16 s
Bit rate                                 : 78 b/s
Count of elements                        : 379
Stream size                              : 12.9 KiB (0%)
Title                                    : polski
Language                                 : Polish
Default                                  : No
Forced                                   : No

Text #10
ID                                       : 12
Format                                   : UTF-8
Codec ID                                 : S_TEXT/UTF8
Codec ID/Info                            : UTF-8 Plain Text
Duration                                 : 19 min 55 s
Bit rate                                 : 75 b/s
Count of elements                        : 334
Stream size                              : 11.0 KiB (0%)
Title                                    : Türkçe
Language                                 : Turkish
Default                                  : No
Forced                                   : No

Text #11
ID                                       : 13
Format                                   : UTF-8
Codec ID                                 : S_TEXT/UTF8
Codec ID/Info                            : UTF-8 Plain Text
Duration                                 : 1 s 835 ms
Bit rate                                 : 104 b/s
Count of elements                        : 1
Stream size                              : 24.0 Bytes (0%)
Title                                    : svenska
Language                                 : Swedish
Default                                  : No
Forced                                   : Yes

Text #12
ID                                       : 14
Format                                   : UTF-8
Codec ID                                 : S_TEXT/UTF8
Codec ID/Info                            : UTF-8 Plain Text
Duration                                 : 21 min 16 s
Bit rate                                 : 76 b/s
Count of elements                        : 366
Stream size                              : 11.9 KiB (0%)
Title                                    : svenska
Language                                 : Swedish
Default                                  : No
Forced                                   : No

Text #13
ID                                       : 15
Format                                   : UTF-8
Codec ID                                 : S_TEXT/UTF8
Codec ID/Info                            : UTF-8 Plain Text
Duration                                 : 20 min 16 s
Bit rate                                 : 89 b/s
Count of elements                        : 427
Stream size                              : 13.3 KiB (0%)
Title                                    : svenska
Language                                 : Swedish
Default                                  : No
Forced                                   : No

Text #14
ID                                       : 16
Format                                   : UTF-8
Codec ID                                 : S_TEXT/UTF8
Codec ID/Info                            : UTF-8 Plain Text
Duration                                 : 6 s 6 ms
Bit rate                                 : 7 b/s
Count of elements                        : 1
Stream size                              : 6.00 Bytes (0%)
Title                                    : suomi
Language                                 : Finnish
Default                                  : No
Forced                                   : Yes

Text #15
ID                                       : 17
Format                                   : UTF-8
Codec ID                                 : S_TEXT/UTF8
Codec ID/Info                            : UTF-8 Plain Text
Duration                                 : 21 min 16 s
Bit rate                                 : 76 b/s
Count of elements                        : 315
Stream size                              : 11.9 KiB (0%)
Title                                    : suomi
Language                                 : Finnish
Default                                  : No
Forced                                   : No

Text #16
ID                                       : 18
Format                                   : UTF-8
Codec ID                                 : S_TEXT/UTF8
Codec ID/Info                            : UTF-8 Plain Text
Duration                                 : 20 min 15 s
Bit rate                                 : 88 b/s
Count of elements                        : 383
Stream size                              : 13.1 KiB (0%)
Title                                    : Nederlands
Language                                 : Dutch
Default                                  : No
Forced                                   : No

Text #17
ID                                       : 19
Format                                   : UTF-8
Codec ID                                 : S_TEXT/UTF8
Codec ID/Info                            : UTF-8 Plain Text
Duration                                 : 18 min 53 s
Bit rate                                 : 0 b/s
Count of elements                        : 2
Stream size                              : 48.0 Bytes (0%)
Title                                    : norsk
Language                                 : Norwegian Bokmal
Default                                  : No
Forced                                   : Yes

Text #18
ID                                       : 20
Format                                   : UTF-8
Codec ID                                 : S_TEXT/UTF8
Codec ID/Info                            : UTF-8 Plain Text
Duration                                 : 21 min 16 s
Bit rate                                 : 75 b/s
Count of elements                        : 302
Stream size                              : 11.8 KiB (0%)
Title                                    : norsk
Language                                 : Norwegian Bokmal
Default                                  : No
Forced                                   : No

Text #19
ID                                       : 21
Format                                   : UTF-8
Codec ID                                 : S_TEXT/UTF8
Codec ID/Info                            : UTF-8 Plain Text
Duration                                 : 20 min 15 s
Bit rate                                 : 97 b/s
Count of elements                        : 249
Stream size                              : 14.5 KiB (0%)
Title                                    : עברית
Language                                 : Hebrew
Default                                  : No
Forced                                   : No

Text #20
ID                                       : 22
Format                                   : UTF-8
Codec ID                                 : S_TEXT/UTF8
Codec ID/Info                            : UTF-8 Plain Text
Duration                                 : 1 s 835 ms
Bit rate                                 : 69 b/s
Count of elements                        : 1
Stream size                              : 16.0 Bytes (0%)
Title                                    : العربية
Language                                 : Arabic
Default                                  : No
Forced                                   : Yes

Text #21
ID                                       : 23
Format                                   : UTF-8
Codec ID                                 : S_TEXT/UTF8
Codec ID/Info                            : UTF-8 Plain Text
Duration                                 : 21 min 16 s
Bit rate                                 : 157 b/s
Count of elements                        : 426
Stream size                              : 24.6 KiB (0%)
Title                                    : العربية
Language                                 : Arabic
Default                                  : No
Forced                                   : No

Other Files in this Torrent
[AnimeRG] Pokémon - 0033 - The Flame Pokémon-athon! [1080p] [x265] [pseudo].mkv
beta
Anime DDL+NZB mirror
Current Time: 14/07/2024 10:38



About/FAQs

Discord