Extras/[AnimeRG] Pokémon - 0038 - Electric Soldier Porygon [SEIZURE EPISODE] [1080p] [Eng-Sub] [x265] [pseudo].mkv


File Size304.4 MB (319,167,785 bytes)
DownloadClickNUpload | DiskoKosmiko | Go4Up
  • DownAce
  • FileFactory
  • KatFile
  • Oboom
  • OwnDrives
  • Share-Online
  • TusFiles
  • UploadGig
  • Uppit
  • UsersCloud
| Jheberg | MultiUp | OpenLoad | SolidFiles | ZippyShare
Sendspace: Part1, Part2
HashesCRC32: 804E85AE, MD5: 1F06AE6793C3ABC1D0BF31C6804DE41E, SHA1: E5C91C640752BE11D4F47441C0D1DECD1F97B107, SHA256: BA5CB77769D213431E9AA5675897BFCBE6A14A528895FA361548E6BF17C684D5, ED2K: C46E12FB96AD271F3852B857000B2040
Screenshots
screenshotscreenshotscreenshotscreenshotscreenshot
Additional Info
General
Unique ID                                : 226229497876914731073466604877470910274 (0xAA323767B9DE337C8EFA3C9254824742)
Complete name                            : [AnimeRG] Pokémon - 0038 - Electric Soldier Porygon [SEIZURE EPISODE] [1080p] [Eng-Sub] [x265] [pseudo].mkv
Format                                   : Matroska
Format version                           : Version 4 / Version 2
File size                                : 304 MiB
Duration                                 : 25 min 47 s
Overall bit rate                         : 1 650 kb/s
Encoded date                             : UTC 2018-06-14 15:55:23
Writing application                      : mkvmerge v15.0.0 ('Duel with the Devil') 64-bit
Writing library                          : libebml v1.3.5 + libmatroska v1.4.5
Writing frontend                         : StaxRip v1.7.0.0

Video
ID                                       : 1
Format                                   : HEVC
Format/Info                              : High Efficiency Video Coding
Format profile                           : Main@L5.1@Main
Codec ID                                 : V_MPEGH/ISO/HEVC
Duration                                 : 25 min 47 s
Bit rate                                 : 1 537 kb/s
Width                                    : 1 440 pixels
Height                                   : 1 088 pixels
Display aspect ratio                     : 4:3
Frame rate mode                          : Constant
Frame rate                               : 23.976 (24000/1001) FPS
Standard                                 : NTSC
Color space                              : YUV
Chroma subsampling                       : 4:2:0
Bit depth                                : 8 bits
Bits/(Pixel*Frame)                       : 0.041
Stream size                              : 284 MiB (93%)
Default                                  : Yes
Forced                                   : No
Color range                              : Limited
Color primaries                          : BT.709
Transfer characteristics                 : BT.709
Matrix coefficients                      : BT.709

Audio
ID                                       : 2
Format                                   : AAC
Format/Info                              : Advanced Audio Codec
Format profile                           : LC
Codec ID                                 : A_AAC
Duration                                 : 25 min 47 s
Bit rate                                 : 111 kb/s
Channel(s)                               : 2 channels
Channel positions                        : Front: L R
Sampling rate                            : 48.0 kHz
Frame rate                               : 46.875 FPS (1024 spf)
Compression mode                         : Lossy
Delay relative to video                  : 20 ms
Stream size                              : 20.4 MiB (7%)
Title                                    : English Stereo
Language                                 : English
Default                                  : Yes
Forced                                   : No

Other Files in this Torrent
Extras/[AnimeRG] Pokémon - 0038 - Electric Soldier Porygon [SEIZURE EPISODE] [1080p] [Eng-Sub] [x265] [pseudo].mkv
beta
Anime DDL+NZB mirror
Current Time: 16/07/2024 15:21



About/FAQs

Discord