File Size196.0 MB (205,563,704 bytes)
DownloadClickNUpload | DiskoKosmiko | Go4Up
  • DownAce
  • FileFactory
  • KatFile
  • Oboom
  • OwnDrives
  • Share-Online
  • TusFiles
  • UploadGig
  • Uppit
  • UsersCloud
| Jheberg | MultiUp | OpenLoad | Sendspace | SolidFiles | ZippyShare
HashesCRC32: 6CAF4029, MD5: 85AB8CE91EB41857162946071A9D8DC4, SHA1: F3E7BEF3516C5A7BA80AAB6532CAD36994977EF1, SHA256: 814C9F752668FBA052FC26602A297E6F19319E9D82253C5E7DB5C4C704760D63, ED2K: 30D0F69746AE9FB5DA1C116F19E87D7F
Screenshots
screenshotscreenshotscreenshotscreenshotscreenshot
Additional Info
General
Unique ID                                : 218657127456654193556424006947611704325 (0xA47FD4B7F9C8A97EB751437D38817C05)
Complete name                            : [AnimeRG] Pokémon - 0035 - The Legend of Dratini [1080p] [Eng-Sub] [x265] [pseudo].mkv
Format                                   : Matroska
Format version                           : Version 4 / Version 2
File size                                : 196 MiB
Duration                                 : 22 min 49 s
Overall bit rate                         : 1 201 kb/s
Encoded date                             : UTC 2018-06-14 15:54:28
Writing application                      : mkvmerge v15.0.0 ('Duel with the Devil') 64-bit
Writing library                          : libebml v1.3.5 + libmatroska v1.4.5
Writing frontend                         : StaxRip v1.7.0.0

Video
ID                                       : 1
Format                                   : HEVC
Format/Info                              : High Efficiency Video Coding
Format profile                           : Main@L5.1@Main
Codec ID                                 : V_MPEGH/ISO/HEVC
Duration                                 : 22 min 49 s
Bit rate                                 : 1 101 kb/s
Width                                    : 1 440 pixels
Height                                   : 1 088 pixels
Display aspect ratio                     : 4:3
Frame rate mode                          : Constant
Frame rate                               : 23.976 (24000/1001) FPS
Standard                                 : NTSC
Color space                              : YUV
Chroma subsampling                       : 4:2:0
Bit depth                                : 8 bits
Bits/(Pixel*Frame)                       : 0.029
Stream size                              : 180 MiB (92%)
Default                                  : Yes
Forced                                   : No
Color range                              : Limited
Color primaries                          : BT.709
Transfer characteristics                 : BT.709
Matrix coefficients                      : BT.709

Audio
ID                                       : 2
Format                                   : AAC
Format/Info                              : Advanced Audio Codec
Format profile                           : LC
Codec ID                                 : A_AAC
Duration                                 : 22 min 49 s
Bit rate                                 : 96.0 kb/s
Channel(s)                               : 2 channels
Channel positions                        : Front: L R
Sampling rate                            : 48.0 kHz
Frame rate                               : 46.875 FPS (1024 spf)
Compression mode                         : Lossy
Delay relative to video                  : 20 ms
Stream size                              : 16.0 MiB (8%)
Title                                    : English Stereo
Language                                 : English
Default                                  : Yes
Forced                                   : No

Other Files in this Torrent
[AnimeRG] Pokémon - 0035 - The Legend of Dratini [1080p] [Eng-Sub] [x265] [pseudo].mkv
beta
Anime DDL+NZB mirror
Current Time: 14/07/2024 10:10



About/FAQs

Discord