File Size223.1 MB (233,947,348 bytes)
DownloadClickNUpload | DiskoKosmiko | Go4Up
  • DownAce
  • FileFactory
  • KatFile
  • Oboom
  • OwnDrives
  • Share-Online
  • TusFiles
  • UploadGig
  • Uppit
  • UsersCloud
| Jheberg | MultiUp | OpenLoad | Sendspace | SolidFiles | ZippyShare
HashesCRC32: 70E6577F, MD5: 5F52F7D8EABDC84A693890E48B658714, SHA1: 14DF992A2C64133F6F2179950A03002FA530D795, SHA256: 58891AA8DA710E50EA7EA59FC617B8AB3644A693A57440A26C6FE6349B92ADC6, ED2K: 8ED37F2806383EABB095D64DB29AA931
Screenshots
screenshotscreenshotscreenshotscreenshotscreenshot
SubtitlesAll Attachments | English [eng, SRT], español [spa, SRT], español [spa, SRT], español [spa, SRT], français [fre, SRT], Deutsch [ger, SRT], Deutsch [ger, SRT], italiano [ita, SRT], italiano [ita, SRT], português [por, SRT], português [por, SRT], português [por, SRT], português [por, SRT], polski [pol, SRT], Türkçe [tur, SRT], svenska [swe, SRT], svenska [swe, SRT], svenska [swe, SRT], suomi [fin, SRT], suomi [fin, SRT], Nederlands [dut, SRT], Nederlands [dut, SRT], norsk [nob, SRT], norsk [nob, SRT], עברית [heb, SRT], العربية [ara, SRT], العربية [ara, SRT]
Additional Info
General
Unique ID                                : 209262901020282166724300150220585218220 (0x9D6E919872D49A48B2B6DFB189CCB0AC)
Complete name                            : [AnimeRG] Pokémon - 0017 - Island of the Giant Pokémon [1080p] [x265] [pseudo].mkv
Format                                   : Matroska
Format version                           : Version 4 / Version 2
File size                                : 223 MiB
Duration                                 : 22 min 22 s
Overall bit rate                         : 1 394 kb/s
Encoded date                             : UTC 2018-06-14 02:46:23
Writing application                      : mkvmerge v15.0.0 ('Duel with the Devil') 64-bit
Writing library                          : libebml v1.3.5 + libmatroska v1.4.5
Writing frontend                         : StaxRip v1.7.0.0

Video
ID                                       : 1
Format                                   : HEVC
Format/Info                              : High Efficiency Video Coding
Format profile                           : Main@L5.1@Main
Codec ID                                 : V_MPEGH/ISO/HEVC
Duration                                 : 22 min 22 s
Bit rate                                 : 1 294 kb/s
Width                                    : 1 440 pixels
Height                                   : 1 080 pixels
Display aspect ratio                     : 4:3
Frame rate mode                          : Constant
Frame rate                               : 23.976 (24000/1001) FPS
Standard                                 : NTSC
Color space                              : YUV
Chroma subsampling                       : 4:2:0
Bit depth                                : 8 bits
Bits/(Pixel*Frame)                       : 0.035
Stream size                              : 207 MiB (93%)
Default                                  : Yes
Forced                                   : No
Color range                              : Limited
Color primaries                          : BT.709
Transfer characteristics                 : BT.709
Matrix coefficients                      : BT.709

Audio
ID                                       : 2
Format                                   : AAC
Format/Info                              : Advanced Audio Codec
Format profile                           : LC
Codec ID                                 : A_AAC
Duration                                 : 22 min 22 s
Bit rate                                 : 96.0 kb/s
Channel(s)                               : 2 channels
Channel positions                        : Front: L R
Sampling rate                            : 48.0 kHz
Frame rate                               : 46.875 FPS (1024 spf)
Compression mode                         : Lossy
Delay relative to video                  : 20 ms
Stream size                              : 15.3 MiB (7%)
Title                                    : English Stereo
Language                                 : English
Default                                  : Yes
Forced                                   : No

Text #1
ID                                       : 3
Format                                   : UTF-8
Codec ID                                 : S_TEXT/UTF8
Codec ID/Info                            : UTF-8 Plain Text
Duration                                 : 20 min 12 s
Bit rate                                 : 62 b/s
Count of elements                        : 358
Stream size                              : 9.21 KiB (0%)
Title                                    : English
Language                                 : English
Default                                  : No
Forced                                   : No

Text #2
ID                                       : 4
Format                                   : UTF-8
Codec ID                                 : S_TEXT/UTF8
Codec ID/Info                            : UTF-8 Plain Text
Duration                                 : 11 min 41 s
Bit rate                                 : 19 b/s
Count of elements                        : 79
Stream size                              : 1.68 KiB (0%)
Title                                    : español
Language                                 : Spanish
Default                                  : No
Forced                                   : Yes

Text #3
ID                                       : 5
Format                                   : UTF-8
Codec ID                                 : S_TEXT/UTF8
Codec ID/Info                            : UTF-8 Plain Text
Duration                                 : 21 min 14 s
Bit rate                                 : 69 b/s
Count of elements                        : 430
Stream size                              : 10.8 KiB (0%)
Title                                    : español
Language                                 : Spanish
Default                                  : No
Forced                                   : No

Text #4
ID                                       : 6
Format                                   : UTF-8
Codec ID                                 : S_TEXT/UTF8
Codec ID/Info                            : UTF-8 Plain Text
Duration                                 : 19 min 14 s
Bit rate                                 : 73 b/s
Count of elements                        : 411
Stream size                              : 10.4 KiB (0%)
Title                                    : español
Language                                 : Spanish
Default                                  : No
Forced                                   : No

Text #5
ID                                       : 7
Format                                   : UTF-8
Codec ID                                 : S_TEXT/UTF8
Codec ID/Info                            : UTF-8 Plain Text
Duration                                 : 20 min 16 s
Bit rate                                 : 75 b/s
Count of elements                        : 379
Stream size                              : 11.2 KiB (0%)
Title                                    : français
Language                                 : French
Default                                  : No
Forced                                   : No

Text #6
ID                                       : 8
Format                                   : UTF-8
Codec ID                                 : S_TEXT/UTF8
Codec ID/Info                            : UTF-8 Plain Text
Duration                                 : 16 min 42 s
Bit rate                                 : 13 b/s
Count of elements                        : 78
Stream size                              : 1.67 KiB (0%)
Title                                    : Deutsch
Language                                 : German
Default                                  : No
Forced                                   : Yes

Text #7
ID                                       : 9
Format                                   : UTF-8
Codec ID                                 : S_TEXT/UTF8
Codec ID/Info                            : UTF-8 Plain Text
Duration                                 : 20 min 16 s
Bit rate                                 : 70 b/s
Count of elements                        : 423
Stream size                              : 10.4 KiB (0%)
Title                                    : Deutsch
Language                                 : German
Default                                  : No
Forced                                   : No

Text #8
ID                                       : 10
Format                                   : UTF-8
Codec ID                                 : S_TEXT/UTF8
Codec ID/Info                            : UTF-8 Plain Text
Duration                                 : 16 min 42 s
Bit rate                                 : 12 b/s
Count of elements                        : 77
Stream size                              : 1.52 KiB (0%)
Title                                    : italiano
Language                                 : Italian
Default                                  : No
Forced                                   : Yes

Text #9
ID                                       : 11
Format                                   : UTF-8
Codec ID                                 : S_TEXT/UTF8
Codec ID/Info                            : UTF-8 Plain Text
Duration                                 : 22 min 15 s
Bit rate                                 : 56 b/s
Count of elements                        : 338
Stream size                              : 9.18 KiB (0%)
Title                                    : italiano
Language                                 : Italian
Default                                  : No
Forced                                   : No

Text #10
ID                                       : 12
Format                                   : UTF-8
Codec ID                                 : S_TEXT/UTF8
Codec ID/Info                            : UTF-8 Plain Text
Duration                                 : 16 min 42 s
Bit rate                                 : 12 b/s
Count of elements                        : 77
Stream size                              : 1.54 KiB (0%)
Title                                    : português
Language                                 : Portuguese
Default                                  : No
Forced                                   : Yes

Text #11
ID                                       : 13
Format                                   : UTF-8
Codec ID                                 : S_TEXT/UTF8
Codec ID/Info                            : UTF-8 Plain Text
Duration                                 : 21 min 17 s
Bit rate                                 : 68 b/s
Count of elements                        : 430
Stream size                              : 10.6 KiB (0%)
Title                                    : português
Language                                 : Portuguese
Default                                  : No
Forced                                   : No

Text #12
ID                                       : 14
Format                                   : UTF-8
Codec ID                                 : S_TEXT/UTF8
Codec ID/Info                            : UTF-8 Plain Text
Duration                                 : 16 min 42 s
Bit rate                                 : 13 b/s
Count of elements                        : 77
Stream size                              : 1.61 KiB (0%)
Title                                    : português
Language                                 : Portuguese
Default                                  : No
Forced                                   : Yes

Text #13
ID                                       : 15
Format                                   : UTF-8
Codec ID                                 : S_TEXT/UTF8
Codec ID/Info                            : UTF-8 Plain Text
Duration                                 : 19 min 18 s
Bit rate                                 : 73 b/s
Count of elements                        : 412
Stream size                              : 10.4 KiB (0%)
Title                                    : português
Language                                 : Portuguese
Default                                  : No
Forced                                   : No

Text #14
ID                                       : 16
Format                                   : UTF-8
Codec ID                                 : S_TEXT/UTF8
Codec ID/Info                            : UTF-8 Plain Text
Duration                                 : 22 min 14 s
Bit rate                                 : 53 b/s
Count of elements                        : 330
Stream size                              : 8.73 KiB (0%)
Title                                    : polski
Language                                 : Polish
Default                                  : No
Forced                                   : No

Text #15
ID                                       : 17
Format                                   : UTF-8
Codec ID                                 : S_TEXT/UTF8
Codec ID/Info                            : UTF-8 Plain Text
Duration                                 : 20 min 7 s
Bit rate                                 : 51 b/s
Count of elements                        : 287
Stream size                              : 7.56 KiB (0%)
Title                                    : Türkçe
Language                                 : Turkish
Default                                  : No
Forced                                   : No

Text #16
ID                                       : 18
Format                                   : UTF-8
Codec ID                                 : S_TEXT/UTF8
Codec ID/Info                            : UTF-8 Plain Text
Duration                                 : 9 min 58 s
Bit rate                                 : 0 b/s
Count of elements                        : 2
Stream size                              : 48.0 Bytes (0%)
Title                                    : svenska
Language                                 : Swedish
Default                                  : No
Forced                                   : Yes

Text #17
ID                                       : 19
Format                                   : UTF-8
Codec ID                                 : S_TEXT/UTF8
Codec ID/Info                            : UTF-8 Plain Text
Duration                                 : 21 min 15 s
Bit rate                                 : 62 b/s
Count of elements                        : 359
Stream size                              : 9.67 KiB (0%)
Title                                    : svenska
Language                                 : Swedish
Default                                  : No
Forced                                   : No

Text #18
ID                                       : 20
Format                                   : UTF-8
Codec ID                                 : S_TEXT/UTF8
Codec ID/Info                            : UTF-8 Plain Text
Duration                                 : 20 min 15 s
Bit rate                                 : 83 b/s
Count of elements                        : 327
Stream size                              : 12.5 KiB (0%)
Title                                    : svenska
Language                                 : Swedish
Default                                  : No
Forced                                   : No

Text #19
ID                                       : 21
Format                                   : UTF-8
Codec ID                                 : S_TEXT/UTF8
Codec ID/Info                            : UTF-8 Plain Text
Duration                                 : 9 min 58 s
Bit rate                                 : 0 b/s
Count of elements                        : 2
Stream size                              : 23.0 Bytes (0%)
Title                                    : suomi
Language                                 : Finnish
Default                                  : No
Forced                                   : Yes

Text #20
ID                                       : 22
Format                                   : UTF-8
Codec ID                                 : S_TEXT/UTF8
Codec ID/Info                            : UTF-8 Plain Text
Duration                                 : 21 min 15 s
Bit rate                                 : 62 b/s
Count of elements                        : 371
Stream size                              : 9.80 KiB (0%)
Title                                    : suomi
Language                                 : Finnish
Default                                  : No
Forced                                   : No

Text #21
ID                                       : 23
Format                                   : UTF-8
Codec ID                                 : S_TEXT/UTF8
Codec ID/Info                            : UTF-8 Plain Text
Duration                                 : 11 min 41 s
Bit rate                                 : 17 b/s
Count of elements                        : 79
Stream size                              : 1.52 KiB (0%)
Title                                    : Nederlands
Language                                 : Dutch
Default                                  : No
Forced                                   : Yes

Text #22
ID                                       : 24
Format                                   : UTF-8
Codec ID                                 : S_TEXT/UTF8
Codec ID/Info                            : UTF-8 Plain Text
Duration                                 : 20 min 12 s
Bit rate                                 : 68 b/s
Count of elements                        : 407
Stream size                              : 10.1 KiB (0%)
Title                                    : Nederlands
Language                                 : Dutch
Default                                  : No
Forced                                   : No

Text #23
ID                                       : 25
Format                                   : UTF-8
Codec ID                                 : S_TEXT/UTF8
Codec ID/Info                            : UTF-8 Plain Text
Duration                                 : 18 min 44 s
Bit rate                                 : 0 b/s
Count of elements                        : 3
Stream size                              : 58.0 Bytes (0%)
Title                                    : norsk
Language                                 : Norwegian Bokmal
Default                                  : No
Forced                                   : Yes

Text #24
ID                                       : 26
Format                                   : UTF-8
Codec ID                                 : S_TEXT/UTF8
Codec ID/Info                            : UTF-8 Plain Text
Duration                                 : 21 min 15 s
Bit rate                                 : 62 b/s
Count of elements                        : 316
Stream size                              : 9.69 KiB (0%)
Title                                    : norsk
Language                                 : Norwegian Bokmal
Default                                  : No
Forced                                   : No

Text #25
ID                                       : 27
Format                                   : UTF-8
Codec ID                                 : S_TEXT/UTF8
Codec ID/Info                            : UTF-8 Plain Text
Duration                                 : 20 min 20 s
Bit rate                                 : 65 b/s
Count of elements                        : 237
Stream size                              : 9.81 KiB (0%)
Title                                    : עברית
Language                                 : Hebrew
Default                                  : No
Forced                                   : No

Text #26
ID                                       : 28
Format                                   : UTF-8
Codec ID                                 : S_TEXT/UTF8
Codec ID/Info                            : UTF-8 Plain Text
Duration                                 : 2 s 711 ms
Bit rate                                 : 47 b/s
Count of elements                        : 1
Stream size                              : 16.0 Bytes (0%)
Title                                    : العربية
Language                                 : Arabic
Default                                  : No
Forced                                   : Yes

Text #27
ID                                       : 29
Format                                   : UTF-8
Codec ID                                 : S_TEXT/UTF8
Codec ID/Info                            : UTF-8 Plain Text
Duration                                 : 21 min 15 s
Bit rate                                 : 125 b/s
Count of elements                        : 397
Stream size                              : 19.5 KiB (0%)
Title                                    : العربية
Language                                 : Arabic
Default                                  : No
Forced                                   : No

Other Files in this Torrent
[AnimeRG] Pokémon - 0017 - Island of the Giant Pokémon [1080p] [x265] [pseudo].mkv
beta
Anime DDL+NZB mirror
Current Time: 16/07/2024 15:25



About/FAQs

Discord