File Size199.6 MB (209,339,616 bytes)
DownloadClickNUpload | DiskoKosmiko | Go4Up
  • DownAce
  • FileFactory
  • KatFile
  • Oboom
  • OwnDrives
  • Share-Online
  • TusFiles
  • UploadGig
  • Uppit
  • UsersCloud
| Jheberg | MultiUp | OpenLoad | Sendspace | SolidFiles | ZippyShare
HashesCRC32: 3DDF185E, MD5: 4C11A92598D7A5DC50D44EC98267C2AB, SHA1: 4F64B9303722D03706778E24CD0D0C1CAB7A7061, SHA256: DA773E256B466452A12A2C0C870A28106AF3730026151BD623813CA758CD4215, ED2K: 03D10381EADB14CFAF654BB50DFDAAD7
Screenshots
screenshotscreenshotscreenshotscreenshotscreenshot
SubtitlesAll Attachments | English [eng, SRT], español [spa, SRT], español [spa, SRT], français [fre, SRT], Deutsch [ger, SRT], italiano [ita, SRT], português [por, SRT], português [por, SRT], polski [pol, SRT], Türkçe [tur, SRT], svenska [swe, SRT], svenska [swe, SRT], svenska [swe, SRT], suomi [fin, SRT], suomi [fin, SRT], Nederlands [dut, SRT], norsk [nob, SRT], norsk [nob, SRT], עברית [heb, SRT], العربية [ara, SRT], العربية [ara, SRT]
Additional Info
General
Unique ID                                : 225137496166651441537898904862547181401 (0xA95FE7906749A8D0A0D8E8F93862FF59)
Complete name                            : [AnimeRG] Pokémon - 0005 - Showdown in Pewter City [1080p] [x265] [pseudo].mkv
Format                                   : Matroska
Format version                           : Version 4 / Version 2
File size                                : 200 MiB
Duration                                 : 22 min 22 s
Overall bit rate                         : 1 248 kb/s
Encoded date                             : UTC 2018-06-14 01:25:53
Writing application                      : mkvmerge v15.0.0 ('Duel with the Devil') 64-bit
Writing library                          : libebml v1.3.5 + libmatroska v1.4.5
Writing frontend                         : StaxRip v1.7.0.0

Video
ID                                       : 1
Format                                   : HEVC
Format/Info                              : High Efficiency Video Coding
Format profile                           : Main@L5.1@Main
Codec ID                                 : V_MPEGH/ISO/HEVC
Duration                                 : 22 min 22 s
Bit rate                                 : 1 149 kb/s
Width                                    : 1 440 pixels
Height                                   : 1 080 pixels
Display aspect ratio                     : 4:3
Frame rate mode                          : Constant
Frame rate                               : 23.976 (24000/1001) FPS
Standard                                 : NTSC
Color space                              : YUV
Chroma subsampling                       : 4:2:0
Bit depth                                : 8 bits
Bits/(Pixel*Frame)                       : 0.031
Stream size                              : 184 MiB (92%)
Default                                  : Yes
Forced                                   : No
Color range                              : Limited
Color primaries                          : BT.709
Transfer characteristics                 : BT.709
Matrix coefficients                      : BT.709

Audio
ID                                       : 2
Format                                   : AAC
Format/Info                              : Advanced Audio Codec
Format profile                           : LC
Codec ID                                 : A_AAC
Duration                                 : 22 min 22 s
Bit rate                                 : 96.0 kb/s
Channel(s)                               : 2 channels
Channel positions                        : Front: L R
Sampling rate                            : 48.0 kHz
Frame rate                               : 46.875 FPS (1024 spf)
Compression mode                         : Lossy
Delay relative to video                  : 20 ms
Stream size                              : 15.1 MiB (8%)
Title                                    : English Stereo
Language                                 : English
Default                                  : Yes
Forced                                   : No

Text #1
ID                                       : 3
Format                                   : UTF-8
Codec ID                                 : S_TEXT/UTF8
Codec ID/Info                            : UTF-8 Plain Text
Duration                                 : 20 min 10 s
Bit rate                                 : 81 b/s
Count of elements                        : 362
Stream size                              : 12.1 KiB (0%)
Title                                    : English
Language                                 : English
Default                                  : No
Forced                                   : No

Text #2
ID                                       : 4
Format                                   : UTF-8
Codec ID                                 : S_TEXT/UTF8
Codec ID/Info                            : UTF-8 Plain Text
Duration                                 : 21 min 15 s
Bit rate                                 : 71 b/s
Count of elements                        : 359
Stream size                              : 11.1 KiB (0%)
Title                                    : español
Language                                 : Spanish
Default                                  : No
Forced                                   : No

Text #3
ID                                       : 5
Format                                   : UTF-8
Codec ID                                 : S_TEXT/UTF8
Codec ID/Info                            : UTF-8 Plain Text
Duration                                 : 21 min 21 s
Bit rate                                 : 75 b/s
Count of elements                        : 341
Stream size                              : 11.8 KiB (0%)
Title                                    : español
Language                                 : Spanish
Default                                  : No
Forced                                   : No

Text #4
ID                                       : 6
Format                                   : UTF-8
Codec ID                                 : S_TEXT/UTF8
Codec ID/Info                            : UTF-8 Plain Text
Duration                                 : 20 min 15 s
Bit rate                                 : 88 b/s
Count of elements                        : 350
Stream size                              : 13.1 KiB (0%)
Title                                    : français
Language                                 : French
Default                                  : No
Forced                                   : No

Text #5
ID                                       : 7
Format                                   : UTF-8
Codec ID                                 : S_TEXT/UTF8
Codec ID/Info                            : UTF-8 Plain Text
Duration                                 : 20 min 15 s
Bit rate                                 : 81 b/s
Count of elements                        : 360
Stream size                              : 12.0 KiB (0%)
Title                                    : Deutsch
Language                                 : German
Default                                  : No
Forced                                   : No

Text #6
ID                                       : 8
Format                                   : UTF-8
Codec ID                                 : S_TEXT/UTF8
Codec ID/Info                            : UTF-8 Plain Text
Duration                                 : 22 min 15 s
Bit rate                                 : 72 b/s
Count of elements                        : 332
Stream size                              : 11.8 KiB (0%)
Title                                    : italiano
Language                                 : Italian
Default                                  : No
Forced                                   : No

Text #7
ID                                       : 9
Format                                   : UTF-8
Codec ID                                 : S_TEXT/UTF8
Codec ID/Info                            : UTF-8 Plain Text
Duration                                 : 20 min 10 s
Bit rate                                 : 69 b/s
Count of elements                        : 337
Stream size                              : 10.2 KiB (0%)
Title                                    : português
Language                                 : Portuguese
Default                                  : No
Forced                                   : No

Text #8
ID                                       : 10
Format                                   : UTF-8
Codec ID                                 : S_TEXT/UTF8
Codec ID/Info                            : UTF-8 Plain Text
Duration                                 : 19 min 13 s
Bit rate                                 : 87 b/s
Count of elements                        : 336
Stream size                              : 12.3 KiB (0%)
Title                                    : português
Language                                 : Portuguese
Default                                  : No
Forced                                   : No

Text #9
ID                                       : 11
Format                                   : UTF-8
Codec ID                                 : S_TEXT/UTF8
Codec ID/Info                            : UTF-8 Plain Text
Duration                                 : 22 min 15 s
Bit rate                                 : 64 b/s
Count of elements                        : 339
Stream size                              : 10.5 KiB (0%)
Title                                    : polski
Language                                 : Polish
Default                                  : No
Forced                                   : No

Text #10
ID                                       : 12
Format                                   : UTF-8
Codec ID                                 : S_TEXT/UTF8
Codec ID/Info                            : UTF-8 Plain Text
Duration                                 : 19 min 55 s
Bit rate                                 : 72 b/s
Count of elements                        : 283
Stream size                              : 10.5 KiB (0%)
Title                                    : Türkçe
Language                                 : Turkish
Default                                  : No
Forced                                   : No

Text #11
ID                                       : 13
Format                                   : UTF-8
Codec ID                                 : S_TEXT/UTF8
Codec ID/Info                            : UTF-8 Plain Text
Duration                                 : 16 min 46 s
Bit rate                                 : 0 b/s
Count of elements                        : 4
Stream size                              : 66.0 Bytes (0%)
Title                                    : svenska
Language                                 : Swedish
Default                                  : No
Forced                                   : Yes

Text #12
ID                                       : 14
Format                                   : UTF-8
Codec ID                                 : S_TEXT/UTF8
Codec ID/Info                            : UTF-8 Plain Text
Duration                                 : 21 min 15 s
Bit rate                                 : 68 b/s
Count of elements                        : 337
Stream size                              : 10.6 KiB (0%)
Title                                    : svenska
Language                                 : Swedish
Default                                  : No
Forced                                   : No

Text #13
ID                                       : 15
Format                                   : UTF-8
Codec ID                                 : S_TEXT/UTF8
Codec ID/Info                            : UTF-8 Plain Text
Duration                                 : 20 min 15 s
Bit rate                                 : 76 b/s
Count of elements                        : 322
Stream size                              : 11.3 KiB (0%)
Title                                    : svenska
Language                                 : Swedish
Default                                  : No
Forced                                   : No

Text #14
ID                                       : 16
Format                                   : UTF-8
Codec ID                                 : S_TEXT/UTF8
Codec ID/Info                            : UTF-8 Plain Text
Duration                                 : 16 min 46 s
Bit rate                                 : 0 b/s
Count of elements                        : 4
Stream size                              : 46.0 Bytes (0%)
Title                                    : suomi
Language                                 : Finnish
Default                                  : No
Forced                                   : Yes

Text #15
ID                                       : 17
Format                                   : UTF-8
Codec ID                                 : S_TEXT/UTF8
Codec ID/Info                            : UTF-8 Plain Text
Duration                                 : 21 min 15 s
Bit rate                                 : 69 b/s
Count of elements                        : 326
Stream size                              : 10.8 KiB (0%)
Title                                    : suomi
Language                                 : Finnish
Default                                  : No
Forced                                   : No

Text #16
ID                                       : 18
Format                                   : UTF-8
Codec ID                                 : S_TEXT/UTF8
Codec ID/Info                            : UTF-8 Plain Text
Duration                                 : 20 min 15 s
Bit rate                                 : 78 b/s
Count of elements                        : 342
Stream size                              : 11.7 KiB (0%)
Title                                    : Nederlands
Language                                 : Dutch
Default                                  : No
Forced                                   : No

Text #17
ID                                       : 19
Format                                   : UTF-8
Codec ID                                 : S_TEXT/UTF8
Codec ID/Info                            : UTF-8 Plain Text
Duration                                 : 18 min 26 s
Bit rate                                 : 0 b/s
Count of elements                        : 4
Stream size                              : 73.0 Bytes (0%)
Title                                    : norsk
Language                                 : Norwegian Bokmal
Default                                  : No
Forced                                   : Yes

Text #18
ID                                       : 20
Format                                   : UTF-8
Codec ID                                 : S_TEXT/UTF8
Codec ID/Info                            : UTF-8 Plain Text
Duration                                 : 21 min 15 s
Bit rate                                 : 63 b/s
Count of elements                        : 248
Stream size                              : 9.96 KiB (0%)
Title                                    : norsk
Language                                 : Norwegian Bokmal
Default                                  : No
Forced                                   : No

Text #19
ID                                       : 21
Format                                   : UTF-8
Codec ID                                 : S_TEXT/UTF8
Codec ID/Info                            : UTF-8 Plain Text
Duration                                 : 20 min 16 s
Bit rate                                 : 83 b/s
Count of elements                        : 230
Stream size                              : 12.4 KiB (0%)
Title                                    : עברית
Language                                 : Hebrew
Default                                  : No
Forced                                   : No

Text #20
ID                                       : 22
Format                                   : UTF-8
Codec ID                                 : S_TEXT/UTF8
Codec ID/Info                            : UTF-8 Plain Text
Duration                                 : 17 min 11 s
Bit rate                                 : 1 b/s
Count of elements                        : 5
Stream size                              : 153 Bytes (0%)
Title                                    : العربية
Language                                 : Arabic
Default                                  : No
Forced                                   : Yes

Text #21
ID                                       : 23
Format                                   : UTF-8
Codec ID                                 : S_TEXT/UTF8
Codec ID/Info                            : UTF-8 Plain Text
Duration                                 : 21 min 15 s
Bit rate                                 : 136 b/s
Count of elements                        : 382
Stream size                              : 21.3 KiB (0%)
Title                                    : العربية
Language                                 : Arabic
Default                                  : No
Forced                                   : No

Other Files in this Torrent
[AnimeRG] Pokémon - 0005 - Showdown in Pewter City [1080p] [x265] [pseudo].mkv
beta
Anime DDL+NZB mirror
Current Time: 14/07/2024 10:48



About/FAQs

Discord