File Size175.9 MB (184,405,861 bytes)
DownloadClickNUpload | DiskoKosmiko | Go4Up
  • DownAce
  • FileFactory
  • KatFile
  • Oboom
  • OwnDrives
  • Share-Online
  • TusFiles
  • UploadGig
  • Uppit
  • UsersCloud
| Jheberg | MultiUp | OpenLoad | Sendspace | SolidFiles | ZippyShare
HashesCRC32: 21FCBD10, MD5: 4D3FBB2BBA6657AFE0997FB7DA212647, SHA1: 018EEC02C30EAC5E2316CCCB0A2694EFB828B795, SHA256: 15FA4311CA26AEEF6251A9903C319D7BC1ED065509FA400BA4568FC1F8DEB481, ED2K: 719B07CE8EA8CFCBBE57804AD5DC21D0
Screenshots
screenshotscreenshotscreenshotscreenshotscreenshot
Additional Info
General
Unique ID                                : 246124240592386647524811893832152453168 (0xB929CDF3B04F2569B9DC1CED0DD71030)
Complete name                            : [AnimeRG] Pokémon - 0018 - Beauty And The Beach [1080p] [KidsWB] [x265] [pseudo].mkv
Format                                   : Matroska
Format version                           : Version 4 / Version 2
File size                                : 176 MiB
Duration                                 : 19 min 45 s
Overall bit rate                         : 1 244 kb/s
Encoded date                             : UTC 2018-06-14 16:09:43
Writing application                      : mkvmerge v15.0.0 ('Duel with the Devil') 64-bit
Writing library                          : libebml v1.3.5 + libmatroska v1.4.5
Writing frontend                         : StaxRip v1.7.0.0

Video
ID                                       : 1
Format                                   : HEVC
Format/Info                              : High Efficiency Video Coding
Format profile                           : Main@L5.1@Main
Codec ID                                 : V_MPEGH/ISO/HEVC
Duration                                 : 19 min 45 s
Bit rate                                 : 1 159 kb/s
Width                                    : 1 440 pixels
Height                                   : 1 088 pixels
Display aspect ratio                     : 4:3
Frame rate mode                          : Constant
Frame rate                               : 23.976 (24000/1001) FPS
Standard                                 : NTSC
Color space                              : YUV
Chroma subsampling                       : 4:2:0
Bit depth                                : 8 bits
Bits/(Pixel*Frame)                       : 0.031
Stream size                              : 164 MiB (93%)
Default                                  : Yes
Forced                                   : No
Color range                              : Limited
Color primaries                          : BT.709
Transfer characteristics                 : BT.709
Matrix coefficients                      : BT.709

Audio
ID                                       : 2
Format                                   : AAC
Format/Info                              : Advanced Audio Codec
Format profile                           : LC
Codec ID                                 : A_AAC
Duration                                 : 19 min 45 s
Bit rate                                 : 83.4 kb/s
Channel(s)                               : 2 channels
Channel positions                        : Front: L R
Sampling rate                            : 44.1 kHz
Frame rate                               : 43.066 FPS (1024 spf)
Compression mode                         : Lossy
Delay relative to video                  : 22 ms
Stream size                              : 11.8 MiB (7%)
Title                                    : English Stereo
Language                                 : English
Default                                  : Yes
Forced                                   : No

Other Files in this Torrent
[AnimeRG] Pokémon - 0018 - Beauty And The Beach [1080p] [KidsWB] [x265] [pseudo].mkv
beta
Anime DDL+NZB mirror
Current Time: 14/07/2024 10:07



About/FAQs

Discord