File Size198.5 MB (208,132,712 bytes)
DownloadClickNUpload | DiskoKosmiko | Go4Up
  • DownAce
  • FileFactory
  • KatFile
  • Oboom
  • OwnDrives
  • Share-Online
  • TusFiles
  • UploadGig
  • Uppit
  • UsersCloud
| Jheberg | MultiUp | OpenLoad | Sendspace | SolidFiles | ZippyShare
HashesCRC32: 38301020, MD5: 143037B43B8DFF42B949BAFF0F814631, SHA1: 9DACE1E70E9661BC9F5E2A8C3EF152A9DD91AA5C, SHA256: AD1A6FD6B9A1C6A5F30D75D8C034E2FEC4D32CA4413B4AAD155AC248043580AE, ED2K: C114796AD7204320E1E8736CA84ABA47
Screenshots
screenshotscreenshotscreenshotscreenshotscreenshot
SubtitlesAll Attachments | English [eng, SRT], español [spa, SRT], español [spa, SRT], français [fre, SRT], Deutsch [ger, SRT], italiano [ita, SRT], português [por, SRT], português [por, SRT], polski [pol, SRT], Türkçe [tur, SRT], svenska [swe, SRT], svenska [swe, SRT], suomi [fin, SRT], suomi [fin, SRT], Nederlands [dut, SRT], norsk [nob, SRT], עברית [heb, SRT], العربية [ara, SRT], العربية [ara, SRT]
Additional Info
General
Unique ID                                : 176316322958542149526890919712322315695 (0x84A549E226285A1CBE49771220F565AF)
Complete name                            : [AnimeRG] Pokémon - 0051 - So Near, Yet So Farfetch'd [1080p] [x265] [pseudo].mkv
Format                                   : Matroska
Format version                           : Version 4 / Version 2
File size                                : 198 MiB
Duration                                 : 22 min 22 s
Overall bit rate                         : 1 241 kb/s
Encoded date                             : UTC 2018-06-14 05:57:09
Writing application                      : mkvmerge v15.0.0 ('Duel with the Devil') 64-bit
Writing library                          : libebml v1.3.5 + libmatroska v1.4.5
Writing frontend                         : StaxRip v1.7.0.0

Video
ID                                       : 1
Format                                   : HEVC
Format/Info                              : High Efficiency Video Coding
Format profile                           : Main@L5.1@Main
Codec ID                                 : V_MPEGH/ISO/HEVC
Duration                                 : 22 min 22 s
Bit rate                                 : 1 142 kb/s
Width                                    : 1 440 pixels
Height                                   : 1 080 pixels
Display aspect ratio                     : 4:3
Frame rate mode                          : Constant
Frame rate                               : 23.976 (24000/1001) FPS
Standard                                 : NTSC
Color space                              : YUV
Chroma subsampling                       : 4:2:0
Bit depth                                : 8 bits
Bits/(Pixel*Frame)                       : 0.031
Stream size                              : 183 MiB (92%)
Default                                  : Yes
Forced                                   : No
Color range                              : Limited
Color primaries                          : BT.709
Transfer characteristics                 : BT.709
Matrix coefficients                      : BT.709

Audio
ID                                       : 2
Format                                   : AAC
Format/Info                              : Advanced Audio Codec
Format profile                           : LC
Codec ID                                 : A_AAC
Duration                                 : 22 min 22 s
Bit rate                                 : 93.4 kb/s
Channel(s)                               : 2 channels
Channel positions                        : Front: L R
Sampling rate                            : 48.0 kHz
Frame rate                               : 46.875 FPS (1024 spf)
Compression mode                         : Lossy
Delay relative to video                  : 20 ms
Stream size                              : 15.0 MiB (8%)
Title                                    : English Stereo
Language                                 : English
Default                                  : Yes
Forced                                   : No

Text #1
ID                                       : 3
Format                                   : UTF-8
Codec ID                                 : S_TEXT/UTF8
Codec ID/Info                            : UTF-8 Plain Text
Duration                                 : 20 min 15 s
Bit rate                                 : 95 b/s
Count of elements                        : 424
Stream size                              : 14.1 KiB (0%)
Title                                    : English
Language                                 : English
Default                                  : No
Forced                                   : No

Text #2
ID                                       : 4
Format                                   : UTF-8
Codec ID                                 : S_TEXT/UTF8
Codec ID/Info                            : UTF-8 Plain Text
Duration                                 : 21 min 16 s
Bit rate                                 : 84 b/s
Count of elements                        : 419
Stream size                              : 13.1 KiB (0%)
Title                                    : español
Language                                 : Spanish
Default                                  : No
Forced                                   : No

Text #3
ID                                       : 5
Format                                   : UTF-8
Codec ID                                 : S_TEXT/UTF8
Codec ID/Info                            : UTF-8 Plain Text
Duration                                 : 19 min 16 s
Bit rate                                 : 97 b/s
Count of elements                        : 401
Stream size                              : 13.8 KiB (0%)
Title                                    : español
Language                                 : Spanish
Default                                  : No
Forced                                   : No

Text #4
ID                                       : 6
Format                                   : UTF-8
Codec ID                                 : S_TEXT/UTF8
Codec ID/Info                            : UTF-8 Plain Text
Duration                                 : 20 min 16 s
Bit rate                                 : 91 b/s
Count of elements                        : 399
Stream size                              : 13.6 KiB (0%)
Title                                    : français
Language                                 : French
Default                                  : No
Forced                                   : No

Text #5
ID                                       : 7
Format                                   : UTF-8
Codec ID                                 : S_TEXT/UTF8
Codec ID/Info                            : UTF-8 Plain Text
Duration                                 : 20 min 16 s
Bit rate                                 : 92 b/s
Count of elements                        : 405
Stream size                              : 13.8 KiB (0%)
Title                                    : Deutsch
Language                                 : German
Default                                  : No
Forced                                   : No

Text #6
ID                                       : 8
Format                                   : UTF-8
Codec ID                                 : S_TEXT/UTF8
Codec ID/Info                            : UTF-8 Plain Text
Duration                                 : 22 min 16 s
Bit rate                                 : 82 b/s
Count of elements                        : 360
Stream size                              : 13.5 KiB (0%)
Title                                    : italiano
Language                                 : Italian
Default                                  : No
Forced                                   : No

Text #7
ID                                       : 9
Format                                   : UTF-8
Codec ID                                 : S_TEXT/UTF8
Codec ID/Info                            : UTF-8 Plain Text
Duration                                 : 20 min 16 s
Bit rate                                 : 91 b/s
Count of elements                        : 407
Stream size                              : 13.5 KiB (0%)
Title                                    : português
Language                                 : Portuguese
Default                                  : No
Forced                                   : No

Text #8
ID                                       : 10
Format                                   : UTF-8
Codec ID                                 : S_TEXT/UTF8
Codec ID/Info                            : UTF-8 Plain Text
Duration                                 : 19 min 16 s
Bit rate                                 : 99 b/s
Count of elements                        : 404
Stream size                              : 14.0 KiB (0%)
Title                                    : português
Language                                 : Portuguese
Default                                  : No
Forced                                   : No

Text #9
ID                                       : 11
Format                                   : UTF-8
Codec ID                                 : S_TEXT/UTF8
Codec ID/Info                            : UTF-8 Plain Text
Duration                                 : 22 min 16 s
Bit rate                                 : 73 b/s
Count of elements                        : 354
Stream size                              : 12.0 KiB (0%)
Title                                    : polski
Language                                 : Polish
Default                                  : No
Forced                                   : No

Text #10
ID                                       : 12
Format                                   : UTF-8
Codec ID                                 : S_TEXT/UTF8
Codec ID/Info                            : UTF-8 Plain Text
Duration                                 : 19 min 59 s
Bit rate                                 : 70 b/s
Count of elements                        : 286
Stream size                              : 10.3 KiB (0%)
Title                                    : Türkçe
Language                                 : Turkish
Default                                  : No
Forced                                   : No

Text #11
ID                                       : 13
Format                                   : UTF-8
Codec ID                                 : S_TEXT/UTF8
Codec ID/Info                            : UTF-8 Plain Text
Duration                                 : 21 min 15 s
Bit rate                                 : 88 b/s
Count of elements                        : 370
Stream size                              : 13.9 KiB (0%)
Title                                    : svenska
Language                                 : Swedish
Default                                  : No
Forced                                   : No

Text #12
ID                                       : 14
Format                                   : UTF-8
Codec ID                                 : S_TEXT/UTF8
Codec ID/Info                            : UTF-8 Plain Text
Duration                                 : 20 min 16 s
Bit rate                                 : 96 b/s
Count of elements                        : 370
Stream size                              : 14.4 KiB (0%)
Title                                    : svenska
Language                                 : Swedish
Default                                  : No
Forced                                   : No

Text #13
ID                                       : 15
Format                                   : UTF-8
Codec ID                                 : S_TEXT/UTF8
Codec ID/Info                            : UTF-8 Plain Text
Duration                                 : 1 s 376 ms
Bit rate                                 : 34 b/s
Count of elements                        : 1
Stream size                              : 6.00 Bytes (0%)
Title                                    : suomi
Language                                 : Finnish
Default                                  : No
Forced                                   : Yes

Text #14
ID                                       : 16
Format                                   : UTF-8
Codec ID                                 : S_TEXT/UTF8
Codec ID/Info                            : UTF-8 Plain Text
Duration                                 : 21 min 15 s
Bit rate                                 : 76 b/s
Count of elements                        : 339
Stream size                              : 11.9 KiB (0%)
Title                                    : suomi
Language                                 : Finnish
Default                                  : No
Forced                                   : No

Text #15
ID                                       : 17
Format                                   : UTF-8
Codec ID                                 : S_TEXT/UTF8
Codec ID/Info                            : UTF-8 Plain Text
Duration                                 : 20 min 16 s
Bit rate                                 : 89 b/s
Count of elements                        : 398
Stream size                              : 13.3 KiB (0%)
Title                                    : Nederlands
Language                                 : Dutch
Default                                  : No
Forced                                   : No

Text #16
ID                                       : 18
Format                                   : UTF-8
Codec ID                                 : S_TEXT/UTF8
Codec ID/Info                            : UTF-8 Plain Text
Duration                                 : 21 min 15 s
Bit rate                                 : 71 b/s
Count of elements                        : 297
Stream size                              : 11.1 KiB (0%)
Title                                    : norsk
Language                                 : Norwegian Bokmal
Default                                  : No
Forced                                   : No

Text #17
ID                                       : 19
Format                                   : UTF-8
Codec ID                                 : S_TEXT/UTF8
Codec ID/Info                            : UTF-8 Plain Text
Duration                                 : 20 min 19 s
Bit rate                                 : 89 b/s
Count of elements                        : 240
Stream size                              : 13.4 KiB (0%)
Title                                    : עברית
Language                                 : Hebrew
Default                                  : No
Forced                                   : No

Text #18
ID                                       : 20
Format                                   : UTF-8
Codec ID                                 : S_TEXT/UTF8
Codec ID/Info                            : UTF-8 Plain Text
Duration                                 : 17 min 33 s
Bit rate                                 : 0 b/s
Count of elements                        : 2
Stream size                              : 84.0 Bytes (0%)
Title                                    : العربية
Language                                 : Arabic
Default                                  : No
Forced                                   : Yes

Text #19
ID                                       : 21
Format                                   : UTF-8
Codec ID                                 : S_TEXT/UTF8
Codec ID/Info                            : UTF-8 Plain Text
Duration                                 : 21 min 15 s
Bit rate                                 : 163 b/s
Count of elements                        : 384
Stream size                              : 25.4 KiB (0%)
Title                                    : العربية
Language                                 : Arabic
Default                                  : No
Forced                                   : No

Other Files in this Torrent
[AnimeRG] Pokémon - 0051 - So Near, Yet So Farfetch'd [1080p] [x265] [pseudo].mkv
beta
Anime DDL+NZB mirror
Current Time: 14/07/2024 10:52



About/FAQs

Discord