File Size76.48 MB (80,198,850 bytes)
DownloadAnonFiles | ClickNUpload | DropAPK | Free | MultiUp
  • BdUpload
  • DownAce
  • Fichier
  • FileCloud
  • Filerio
  • FilesCdn
  • IndiShare
  • Kbagi
  • Turbobit
  • UpToBox
  • Uppit
| SolidFiles | ZippyShare
HashesCRC32: B37313C4, MD5: B3B3BFDB23447C8A38D6461527FE405A, SHA1: 2811D7F457B1EA7E819DD275B735ED9FEEBBE257, SHA256: 33E4E97997D044219D90BD94902CCEA991A7F92E229844B7103D434AA41FC37E, ED2K: B901748008EA7B54FDDAA2EC7E9E8652
Screenshots
screenshotscreenshotscreenshot
Additional Info
General
Complete name                            : Youjo Shenki #11 [B37313C4].mp4
Format                                   : MPEG-4
Format profile                           : Base Media / Version 2
Codec ID                                 : mp42 (mp42/mp41)
File size                                : 76.5 MiB
Duration                                 : 2 min 30 s
Overall bit rate mode                    : Variable
Overall bit rate                         : 4 266 kb/s
Encoded date                             : UTC 2017-07-18 02:58:59
Tagged date                              : UTC 2017-07-18 02:59:00
TIM                                      : 00:00:00:00
TSC                                      : 24000
TSZ                                      : 1001

Video
ID                                       : 1
Format                                   : AVC
Format/Info                              : Advanced Video Codec
Format profile                           : Main@L4.1
Format settings                          : CABAC / 3 Ref Frames
Format settings, CABAC                   : Yes
Format settings, ReFrames                : 3 frames
Codec ID                                 : avc1
Codec ID/Info                            : Advanced Video Coding
Duration                                 : 2 min 30 s
Bit rate                                 : 3 944 kb/s
Width                                    : 1 280 pixels
Height                                   : 720 pixels
Display aspect ratio                     : 16:9
Frame rate mode                          : Constant
Frame rate                               : 23.976 (24000/1001) FPS
Standard                                 : NTSC
Color space                              : YUV
Chroma subsampling                       : 4:2:0
Bit depth                                : 8 bits
Scan type                                : Progressive
Bits/(Pixel*Frame)                       : 0.178
Stream size                              : 70.7 MiB (92%)
Language                                 : English
Encoded date                             : UTC 2017-07-18 02:58:59
Tagged date                              : UTC 2017-07-18 02:58:59
Color range                              : Limited
Color primaries                          : BT.709
Transfer characteristics                 : BT.709
Matrix coefficients                      : BT.709
Codec configuration box                  : avcC

Audio
ID                                       : 2
Format                                   : AAC LC
Format/Info                              : Advanced Audio Codec Low Complexity
Codec ID                                 : mp4a-40-2
Duration                                 : 2 min 30 s
Source duration                          : 2 min 30 s
Bit rate mode                            : Variable
Bit rate                                 : 317 kb/s
Maximum bit rate                         : 366 kb/s
Channel(s)                               : 2 channels
Channel layout                           : L R
Sampling rate                            : 48.0 kHz
Frame rate                               : 46.875 FPS (1024 SPF)
Compression mode                         : Lossy
Stream size                              : 5.69 MiB (7%)
Source stream size                       : 5.69 MiB (7%)
Language                                 : English
Encoded date                             : UTC 2017-07-18 02:58:59
Tagged date                              : UTC 2017-07-18 02:58:59

Other Files in this Torrent
Youjo Shenki (Special Episodes)/Youjo Shenki #11 [B37313C4].mp4
beta
Anime DDL+NZB mirror
Current Time: 25/07/2024 16:49



About/FAQs

Discord