File Size309.1 MB (324,162,071 bytes)
DownloadAnonFiles | ClickNUpload | DropAPK | Free | MultiUp
  • BdUpload
  • DownAce
  • Fichier
  • FileCloud
  • Filerio
  • FilesCdn
  • IndiShare
  • Kbagi
  • Turbobit
  • UpToBox
  • Uppit
| SolidFiles | ZippyShare
HashesCRC32: 65DE005E, MD5: EA2033258F60B959D7E8AE684A70D971, SHA1: 1F156C6E82E2E26FA667D379E160966D6216E71E, SHA256: AD2E84ECA88DA786D62F9178CD8BF77BA1571BA9BABEB66D543522C3BE458441, ED2K: 988F2EA0ED71B006019899C7F01ADD9B
Screenshots
screenshotscreenshotscreenshotscreenshotscreenshot
SubtitlesAll Attachments | [Hafu | LostYears Edit] Subs [eng, ASS], [Hafu | LostYears Edit] Signs/Songs [eng, ASS]
Additional Info
General
Unique ID                                : 5016759061123105116387377393520060407 (0x3C6315181FAC318C1337F636AB7A7F7)
Complete name                            : [AkihitoSubs] Youjo Senki - S01E07.mkv
Format                                   : Matroska
Format version                           : Version 4
File size                                : 309 MiB
Duration                                 : 23 min 40 s
Overall bit rate                         : 1 825 kb/s
Encoded date                             : UTC 2020-12-24 21:44:17
Writing application                      : mkvmerge v51.0.0 ('I Wish') 64-bit
Writing library                          : libebml v1.4.0 + libmatroska v1.6.2 / Lavf58.45.100
Attachments                              : OpenSans-Semibold.ttf / HPSIMPLIFIED_RG.TTF / IWAOMINPRO-BD-FATE.TTF / Lato-Bol.ttf / Lato-BolIta.ttf / Plantagenet Cherokee.ttf / Roboto-Black.ttf / Roboto-Bold_4.ttf / Roboto-Medium_0.ttf / Budhrg.ttf / FOT-NewCinemaAStd-D.otf / Goudy Text MT Std Regular.otf / BASKVILL.TTF / EraserDust CE.ttf

Video
ID                                       : 1
Format                                   : HEVC
Format/Info                              : High Efficiency Video Coding
Format profile                           : Main 10@L4@Main
Codec ID                                 : V_MPEGH/ISO/HEVC
Duration                                 : 23 min 40 s
Bit rate                                 : 1 392 kb/s
Width                                    : 1 920 pixels
Height                                   : 1 080 pixels
Display aspect ratio                     : 16:9
Frame rate mode                          : Constant
Frame rate                               : 23.976 (24000/1001) FPS
Color space                              : YUV
Chroma subsampling                       : 4:2:0
Bit depth                                : 10 bits
Bits/(Pixel*Frame)                       : 0.028
Stream size                              : 236 MiB (76%)
Writing library                          : x265 0.0:[Linux][GCC 6.3.0][64 bit] 10bit
Encoding settings                        : wpp / ctu=64 / min-cu-size=8 / max-tu-size=32 / tu-intra-depth=1 / tu-inter-depth=1 / me=1 / subme=2 / merange=57 / no-rect / no-amp / max-merge=2 / temporal-mvp / no-early-skip / rskip / rdpenalty=0 / no-tskip / no-tskip-fast / strong-intra-smoothing / no-lossless / no-cu-lossless / no-constrained-intra / no-fast-intra / open-gop / no-temporal-layers / interlace=0 / keyint=250 / min-keyint=23 / scenecut=40 / rc-lookahead=20 / lookahead-slices=6 / bframes=4 / bframe-bias=0 / b-adapt=2 / ref=3 / limit-refs=3 / no-limit-modes / weightp / no-weightb / aq-mode=1 / qg-size=32 / aq-strength=1.00 / cbqpoffs=0 / crqpoffs=0 / rd=3 / psy-rd=2.00 / rdoq-level=0 / psy-rdoq=0.00 / log2-max-poc-lsb=8 / no-rd-refine / signhide / deblock=0:0 / sao / no-sao-non-deblock / b-pyramid / cutree / no-intra-refresh / rc=crf / crf=20.0 / qcomp=0.60 / qpmin=0 / qpmax=69 / qpstep=4 / ipratio=1.40 / pbratio=1.30
Default                                  : Yes
Forced                                   : No

Audio #1
ID                                       : 2
Format                                   : Opus
Codec ID                                 : A_OPUS
Duration                                 : 23 min 40 s
Bit rate                                 : 194 kb/s
Channel(s)                               : 2 channels
Channel layout                           : L R
Sampling rate                            : 48.0 kHz
Frame rate                               : 50.001 FPS (960 SPF)
Compression mode                         : Lossy
Stream size                              : 32.8 MiB (11%)
Writing library                          : Lavc58.91.100 libopus
Language                                 : Japanese
Default                                  : Yes
Forced                                   : No

Audio #2
ID                                       : 3
Format                                   : Opus
Codec ID                                 : A_OPUS
Duration                                 : 23 min 40 s
Bit rate                                 : 195 kb/s
Channel(s)                               : 2 channels
Channel layout                           : L R
Sampling rate                            : 48.0 kHz
Frame rate                               : 50.000 FPS (960 SPF)
Compression mode                         : Lossy
Stream size                              : 33.0 MiB (11%)
Writing library                          : Lavc58.91.100 libopus
Language                                 : English
Default                                  : No
Forced                                   : No

Text #1
ID                                       : 4
Format                                   : ASS
Codec ID                                 : S_TEXT/ASS
Codec ID/Info                            : Advanced Sub Station Alpha
Duration                                 : 23 min 39 s
Bit rate                                 : 142 b/s
Count of elements                        : 377
Compression mode                         : Lossless
Stream size                              : 24.8 KiB (0%)
Title                                    : [Hafu | LostYears Edit] Subs
Language                                 : English
Default                                  : Yes
Forced                                   : No

Text #2
ID                                       : 5
Format                                   : ASS
Codec ID                                 : S_TEXT/ASS
Codec ID/Info                            : Advanced Sub Station Alpha
Duration                                 : 23 min 39 s
Bit rate                                 : 53 b/s
Count of elements                        : 104
Compression mode                         : Lossless
Stream size                              : 9.21 KiB (0%)
Title                                    : [Hafu | LostYears Edit] Signs/Songs
Language                                 : English
Default                                  : No
Forced                                   : No

Menu
00:00:00.000                             : :Chapter 9
00:01:55.032                             : :Chapter 10
00:03:24.996                             : :Chapter 11
00:11:24.976                             : :Chapter 12
00:21:20.946                             : :Chapter 13
00:22:50.911                             : :Chapter 14

Other Files in this Torrent
[AkihitoSubs] Youjo Senki - S01E07.mkv
beta
Anime DDL+NZB mirror
Current Time: 23/04/2024 07:56



About/FAQs

Discord