File Size10.02 MB (10,503,017 bytes)
DownloadAnonFiles | ClickNUpload | DropAPK | Free | MultiUp
  • BdUpload
  • DownAce
  • Fichier
  • FileCloud
  • Filerio
  • FilesCdn
  • IndiShare
  • Kbagi
  • Turbobit
  • UpToBox
  • Uppit
| SolidFiles | ZippyShare
HashesCRC32: A2232F4F, MD5: 1FD345D6F7C1D0E33E3C18EB1770C7C0, SHA1: EE66BA97B98680745EA771CF8DE3A5CB69ED31BB, SHA256: 32617F952B698E86F1DAB34C52EF83830338CA60E953C0A9F0665737608CFC0D, ED2K: BBBDBD89F1050C195AFD8A4A5392587A
Screenshots
screenshotscreenshotscreenshot
Additional Info
General
Complete name                            : Youjo Shenki #06 [A2232F4F].mp4
Format                                   : MPEG-4
Format profile                           : Base Media / Version 2
Codec ID                                 : mp42 (isom/mp42)
File size                                : 10.0 MiB
Duration                                 : 2 min 30 s
Overall bit rate mode                    : Variable
Overall bit rate                         : 559 kb/s
Encoded date                             : UTC 2017-02-17 09:06:36
Tagged date                              : UTC 2017-02-17 09:06:36
gsst                                     : 0
gstd                                     : 150372

Video
ID                                       : 1
Format                                   : AVC
Format/Info                              : Advanced Video Codec
Format profile                           : Main@L3.1
Format settings                          : CABAC / 3 Ref Frames
Format settings, CABAC                   : Yes
Format settings, ReFrames                : 3 frames
Codec ID                                 : avc1
Codec ID/Info                            : Advanced Video Coding
Duration                                 : 2 min 30 s
Bit rate                                 : 430 kb/s
Width                                    : 1 280 pixels
Height                                   : 720 pixels
Display aspect ratio                     : 16:9
Frame rate mode                          : Variable
Frame rate                               : 23.976 (23976/1000) FPS
Minimum frame rate                       : 23.955 FPS
Maximum frame rate                       : 23.962 FPS
Color space                              : YUV
Chroma subsampling                       : 4:2:0
Bit depth                                : 8 bits
Scan type                                : Progressive
Bits/(Pixel*Frame)                       : 0.019
Stream size                              : 7.70 MiB (77%)
Title                                    : ISO Media file produced by Google Inc.
Encoded date                             : UTC 2017-02-17 09:06:36
Tagged date                              : UTC 2017-02-17 09:06:36
Color range                              : Limited
Color primaries                          : BT.709
Transfer characteristics                 : BT.709
Matrix coefficients                      : BT.709
Codec configuration box                  : avcC

Audio
ID                                       : 2
Format                                   : AAC LC
Format/Info                              : Advanced Audio Codec Low Complexity
Codec ID                                 : mp4a-40-2
Duration                                 : 2 min 30 s
Bit rate mode                            : Variable
Bit rate                                 : 126 kb/s
Channel(s)                               : 2 channels
Channel layout                           : L R
Sampling rate                            : 44.1 kHz
Frame rate                               : 43.066 FPS (1024 SPF)
Compression mode                         : Lossy
Stream size                              : 2.25 MiB (22%)
Title                                    : ISO Media file produced by Google Inc.
Encoded date                             : UTC 2017-02-17 09:06:36
Tagged date                              : UTC 2017-02-17 09:06:36

Other Files in this Torrent
Youjo Shenki (Special Episodes)/Youjo Shenki #06 [A2232F4F].mp4
beta
Anime DDL+NZB mirror
Current Time: 17/04/2024 03:40



About/FAQs

Discord