File Size303.5 MB (318,254,360 bytes)
DownloadAnonFiles | ClickNUpload | DropAPK | Free | MultiUp
  • BdUpload
  • DownAce
  • Fichier
  • FileCloud
  • Filerio
  • FilesCdn
  • IndiShare
  • Kbagi
  • Turbobit
  • UpToBox
  • Uppit
| SolidFiles | ZippyShare
HashesCRC32: CDF62469, MD5: 5A09D0490DD60C80AA817E531CACAE60, SHA1: 85D094E371199AA643BF41628ACB8D17151ED950, SHA256: 7E7C8EDADBF0B7968583529762B46BC384470A1C34B2F9A898600D58822145A1, ED2K: 8515DFA5113AF22995E8B4ADDC98DE29
Screenshots
screenshotscreenshotscreenshotscreenshotscreenshot
SubtitlesAll Attachments | [Hafu | LostYears Edit] Subs [eng, ASS], [Hafu | LostYears Edit] Signs/Songs [eng, ASS]
Additional Info
General
Unique ID                                : 30566398686155662075815510586219312875 (0x16FEDFCEFD924D0652C1B020193836EB)
Complete name                            : [AkihitoSubs] Youjo Senki - S01E01.mkv
Format                                   : Matroska
Format version                           : Version 4
File size                                : 304 MiB
Duration                                 : 23 min 40 s
Overall bit rate                         : 1 792 kb/s
Encoded date                             : UTC 2020-12-24 21:44:02
Writing application                      : mkvmerge v51.0.0 ('I Wish') 64-bit
Writing library                          : libebml v1.4.0 + libmatroska v1.6.2 / Lavf58.45.100
Attachments                              : OpenSans-Semibold.ttf / Roboto-Black.ttf / Roboto-Bold_4.ttf / Roboto-Medium_0.ttf / Budhrg.ttf / FOT-NewCinemaAStd-D.otf / Goudy Text MT Std Regular.otf / Lato-Bol.ttf / Lato-BolIta.ttf / Plantagenet Cherokee.ttf / BASKVILL.TTF / EraserDust CE.ttf / IWAOMINPRO-BD-FATE.TTF

Video
ID                                       : 1
Format                                   : HEVC
Format/Info                              : High Efficiency Video Coding
Format profile                           : Main 10@L4@Main
Codec ID                                 : V_MPEGH/ISO/HEVC
Duration                                 : 23 min 40 s
Bit rate                                 : 1 365 kb/s
Width                                    : 1 920 pixels
Height                                   : 1 080 pixels
Display aspect ratio                     : 16:9
Frame rate mode                          : Constant
Frame rate                               : 23.976 (24000/1001) FPS
Color space                              : YUV
Chroma subsampling                       : 4:2:0
Bit depth                                : 10 bits
Bits/(Pixel*Frame)                       : 0.027
Stream size                              : 231 MiB (76%)
Writing library                          : x265 0.0:[Linux][GCC 6.3.0][64 bit] 10bit
Encoding settings                        : wpp / ctu=64 / min-cu-size=8 / max-tu-size=32 / tu-intra-depth=1 / tu-inter-depth=1 / me=2 / subme=2 / merange=64 / no-rect / no-amp / max-merge=2 / temporal-mvp / no-early-skip / rskip / rdpenalty=0 / no-tskip / no-tskip-fast / strong-intra-smoothing / no-lossless / no-cu-lossless / no-constrained-intra / no-fast-intra / open-gop / no-temporal-layers / interlace=0 / keyint=250 / min-keyint=23 / scenecut=40 / rc-lookahead=60 / lookahead-slices=6 / bframes=4 / bframe-bias=0 / b-adapt=2 / ref=3 / limit-refs=3 / no-limit-modes / weightp / no-weightb / aq-mode=1 / qg-size=32 / aq-strength=1.00 / cbqpoffs=0 / crqpoffs=0 / rd=3 / psy-rd=2.00 / rdoq-level=0 / psy-rdoq=0.00 / log2-max-poc-lsb=8 / no-rd-refine / signhide / deblock=0:0 / sao / no-sao-non-deblock / b-pyramid / cutree / no-intra-refresh / rc=crf / crf=20.0 / qcomp=0.60 / qpmin=0 / qpmax=69 / qpstep=4 / ipratio=1.40 / pbratio=1.30
Default                                  : Yes
Forced                                   : No

Audio #1
ID                                       : 2
Format                                   : Opus
Codec ID                                 : A_OPUS
Duration                                 : 23 min 40 s
Bit rate                                 : 191 kb/s
Channel(s)                               : 2 channels
Channel layout                           : L R
Sampling rate                            : 48.0 kHz
Frame rate                               : 50.001 FPS (960 SPF)
Compression mode                         : Lossy
Stream size                              : 32.4 MiB (11%)
Writing library                          : Lavc58.91.100 libopus
Language                                 : Japanese
Default                                  : Yes
Forced                                   : No

Audio #2
ID                                       : 3
Format                                   : Opus
Codec ID                                 : A_OPUS
Duration                                 : 23 min 40 s
Bit rate                                 : 194 kb/s
Channel(s)                               : 2 channels
Channel layout                           : L R
Sampling rate                            : 48.0 kHz
Frame rate                               : 50.001 FPS (960 SPF)
Compression mode                         : Lossy
Stream size                              : 32.9 MiB (11%)
Writing library                          : Lavc58.91.100 libopus
Language                                 : English
Default                                  : No
Forced                                   : No

Text #1
ID                                       : 4
Format                                   : ASS
Codec ID                                 : S_TEXT/ASS
Codec ID/Info                            : Advanced Sub Station Alpha
Duration                                 : 22 min 35 s
Bit rate                                 : 156 b/s
Count of elements                        : 369
Compression mode                         : Lossless
Stream size                              : 26.0 KiB (0%)
Title                                    : [Hafu | LostYears Edit] Subs
Language                                 : English
Default                                  : Yes
Forced                                   : No

Text #2
ID                                       : 5
Format                                   : ASS
Codec ID                                 : S_TEXT/ASS
Codec ID/Info                            : Advanced Sub Station Alpha
Duration                                 : 19 min 40 s
Bit rate                                 : 49 b/s
Count of elements                        : 60
Compression mode                         : Lossless
Stream size                              : 7.18 KiB (0%)
Title                                    : [Hafu | LostYears Edit] Signs/Songs
Language                                 : English
Default                                  : No
Forced                                   : No

Menu
00:00:00.000                             : :Chapter 1
00:03:12.984                             : :Chapter 2
00:13:15.962                             : :Chapter 3

Other Files in this Torrent
[AkihitoSubs] Youjo Senki - S01E01.mkv
beta
Anime DDL+NZB mirror
Current Time: 22/04/2024 13:46



About/FAQs

Discord