File Size368.6 MB (386,483,470 bytes)
DownloadAnonFiles | ClickNUpload | DropAPK | Free | MultiUp
  • BdUpload
  • DownAce
  • Fichier
  • FileCloud
  • Filerio
  • FilesCdn
  • IndiShare
  • Kbagi
  • Turbobit
  • UpToBox
  • Uppit
| SolidFiles | ZippyShare
HashesCRC32: 1C37C067, MD5: 610794337EE3BBA155F0EB5E008073DA, SHA1: 58FACF8E746D2BB021142F1C3A95F2F2CB53A068, SHA256: 8E22A3E0655C027FD80C393174716F1FD54B2BF56FE34512FD3E821D51F238F8, ED2K: 63FD130D53563EC576385521422CF6E2
Screenshots
screenshotscreenshotscreenshotscreenshotscreenshot
SubtitlesAll Attachments | [Hafu | LostYears Edit] Subs [eng, ASS], [Hafu | LostYears Edit] Signs/Songs [eng, ASS]
Additional Info
General
Unique ID                                : 334345033789413620289203085273048097540 (0xFB8882E02E25E4E9DA7C56A1FF892304)
Complete name                            : [AkihitoSubs] Youjo Senki - S01E11.mkv
Format                                   : Matroska
Format version                           : Version 4
File size                                : 369 MiB
Duration                                 : 23 min 41 s
Overall bit rate                         : 2 176 kb/s
Encoded date                             : UTC 2020-12-24 21:44:27
Writing application                      : mkvmerge v51.0.0 ('I Wish') 64-bit
Writing library                          : libebml v1.4.0 + libmatroska v1.6.2 / Lavf58.45.100
Attachments                              : OpenSans-Semibold.ttf / Roboto-Black.ttf / Roboto-Bold_4.ttf / Roboto-Medium_0.ttf / Budhrg.ttf / FOT-NewCinemaAStd-D.otf / Goudy Text MT Std Regular.otf / IWAOMINPRO-BD-FATE.TTF / Lato-Bol.ttf / Lato-BolIta.ttf / Plantagenet Cherokee.ttf / HPSIMPLIFIED_RG.TTF / BASKVILL.TTF / EraserDust CE.ttf

Video
ID                                       : 1
Format                                   : HEVC
Format/Info                              : High Efficiency Video Coding
Format profile                           : Main 10@L4@Main
Codec ID                                 : V_MPEGH/ISO/HEVC
Duration                                 : 23 min 41 s
Bit rate                                 : 1 751 kb/s
Width                                    : 1 920 pixels
Height                                   : 1 080 pixels
Display aspect ratio                     : 16:9
Frame rate mode                          : Constant
Frame rate                               : 23.976 (24000/1001) FPS
Color space                              : YUV
Chroma subsampling                       : 4:2:0
Bit depth                                : 10 bits
Bits/(Pixel*Frame)                       : 0.035
Stream size                              : 297 MiB (80%)
Writing library                          : x265 0.0:[Linux][GCC 6.3.0][64 bit] 10bit
Encoding settings                        : wpp / ctu=64 / min-cu-size=8 / max-tu-size=32 / tu-intra-depth=1 / tu-inter-depth=1 / me=1 / subme=2 / merange=57 / no-rect / no-amp / max-merge=2 / temporal-mvp / no-early-skip / rskip / rdpenalty=0 / no-tskip / no-tskip-fast / strong-intra-smoothing / no-lossless / no-cu-lossless / no-constrained-intra / no-fast-intra / open-gop / no-temporal-layers / interlace=0 / keyint=250 / min-keyint=23 / scenecut=40 / rc-lookahead=20 / lookahead-slices=6 / bframes=4 / bframe-bias=0 / b-adapt=2 / ref=3 / limit-refs=3 / no-limit-modes / weightp / no-weightb / aq-mode=1 / qg-size=32 / aq-strength=1.00 / cbqpoffs=0 / crqpoffs=0 / rd=3 / psy-rd=2.00 / rdoq-level=0 / psy-rdoq=0.00 / log2-max-poc-lsb=8 / no-rd-refine / signhide / deblock=0:0 / sao / no-sao-non-deblock / b-pyramid / cutree / no-intra-refresh / rc=crf / crf=20.0 / qcomp=0.60 / qpmin=0 / qpmax=69 / qpstep=4 / ipratio=1.40 / pbratio=1.30
Default                                  : Yes
Forced                                   : No

Audio #1
ID                                       : 2
Format                                   : Opus
Codec ID                                 : A_OPUS
Duration                                 : 23 min 40 s
Bit rate                                 : 189 kb/s
Channel(s)                               : 2 channels
Channel layout                           : L R
Sampling rate                            : 48.0 kHz
Frame rate                               : 50.000 FPS (960 SPF)
Compression mode                         : Lossy
Stream size                              : 32.0 MiB (9%)
Writing library                          : Lavc58.91.100 libopus
Language                                 : Japanese
Default                                  : Yes
Forced                                   : No

Audio #2
ID                                       : 3
Format                                   : Opus
Codec ID                                 : A_OPUS
Duration                                 : 23 min 40 s
Bit rate                                 : 191 kb/s
Channel(s)                               : 2 channels
Channel layout                           : L R
Sampling rate                            : 48.0 kHz
Frame rate                               : 50.000 FPS (960 SPF)
Compression mode                         : Lossy
Stream size                              : 32.3 MiB (9%)
Writing library                          : Lavc58.91.100 libopus
Language                                 : English
Default                                  : No
Forced                                   : No

Text #1
ID                                       : 4
Format                                   : ASS
Codec ID                                 : S_TEXT/ASS
Codec ID/Info                            : Advanced Sub Station Alpha
Duration                                 : 23 min 36 s
Bit rate                                 : 135 b/s
Count of elements                        : 366
Compression mode                         : Lossless
Stream size                              : 23.5 KiB (0%)
Title                                    : [Hafu | LostYears Edit] Subs
Language                                 : English
Default                                  : Yes
Forced                                   : No

Text #2
ID                                       : 5
Format                                   : ASS
Codec ID                                 : S_TEXT/ASS
Codec ID/Info                            : Advanced Sub Station Alpha
Duration                                 : 19 min 55 s
Bit rate                                 : 68 b/s
Count of elements                        : 112
Compression mode                         : Lossless
Stream size                              : 10.0 KiB (0%)
Title                                    : [Hafu | LostYears Edit] Signs/Songs
Language                                 : English
Default                                  : No
Forced                                   : No

Menu
00:00:00.000                             : :Chapter 13
00:03:23.995                             : :Chapter 14
00:04:54.044                             : :Chapter 15
00:12:58.069                             : :Chapter 16
00:22:10.079                             : :Chapter 17

Other Files in this Torrent
[AkihitoSubs] Youjo Senki - S01E11.mkv
beta
Anime DDL+NZB mirror
Current Time: 22/04/2024 12:11



About/FAQs

Discord