File Size8.203 MB (8,601,894 bytes)
DownloadAnonFiles | ClickNUpload | DropAPK | Free | MultiUp
  • BdUpload
  • DownAce
  • Fichier
  • FileCloud
  • Filerio
  • FilesCdn
  • IndiShare
  • Kbagi
  • Turbobit
  • UpToBox
  • Uppit
| SolidFiles | ZippyShare
HashesCRC32: 0E08D86F, MD5: BDC2BAB6F269BC289736937CBD2A1A7B, SHA1: E740EDED6BD21989EE3B704259841F444E8ADA64, SHA256: 2C726DA216FBD79624423831BFEAFBAE9E57C4F12BC7C2DF0C02B2CFF97E0AF2, ED2K: A6096ED5D6CE33088ED6445C19EF4579
Screenshots
screenshotscreenshot
Additional Info
General
Complete name                            : Youjo Shenki #00 [0E08D86F].mp4
Format                                   : MPEG-4
Format profile                           : Base Media / Version 2
Codec ID                                 : mp42 (isom/mp42)
File size                                : 8.20 MiB
Duration                                 : 1 min 30 s
Overall bit rate mode                    : Variable
Overall bit rate                         : 762 kb/s
Encoded date                             : UTC 2017-01-08 06:59:50
Tagged date                              : UTC 2017-01-08 06:59:50
gsst                                     : 0
gstd                                     : 90325

Video
ID                                       : 1
Format                                   : AVC
Format/Info                              : Advanced Video Codec
Format profile                           : Main@L3.1
Format settings                          : CABAC / 3 Ref Frames
Format settings, CABAC                   : Yes
Format settings, ReFrames                : 3 frames
Codec ID                                 : avc1
Codec ID/Info                            : Advanced Video Coding
Duration                                 : 1 min 30 s
Bit rate                                 : 633 kb/s
Width                                    : 1 280 pixels
Height                                   : 720 pixels
Display aspect ratio                     : 16:9
Frame rate mode                          : Variable
Frame rate                               : 23.942 FPS
Minimum frame rate                       : 23.936 FPS
Maximum frame rate                       : 23.949 FPS
Color space                              : YUV
Chroma subsampling                       : 4:2:0
Bit depth                                : 8 bits
Scan type                                : Progressive
Bits/(Pixel*Frame)                       : 0.029
Stream size                              : 6.81 MiB (83%)
Title                                    : ISO Media file produced by Google Inc.
Encoded date                             : UTC 2017-01-08 06:59:50
Tagged date                              : UTC 2017-01-08 06:59:50
Color range                              : Limited
Color primaries                          : BT.709
Transfer characteristics                 : BT.709
Matrix coefficients                      : BT.709
Codec configuration box                  : avcC

Audio
ID                                       : 2
Format                                   : AAC LC
Format/Info                              : Advanced Audio Codec Low Complexity
Codec ID                                 : mp4a-40-2
Duration                                 : 1 min 30 s
Bit rate mode                            : Variable
Bit rate                                 : 126 kb/s
Channel(s)                               : 2 channels
Channel layout                           : L R
Sampling rate                            : 44.1 kHz
Frame rate                               : 43.066 FPS (1024 SPF)
Compression mode                         : Lossy
Stream size                              : 1.35 MiB (16%)
Title                                    : ISO Media file produced by Google Inc.
Encoded date                             : UTC 2017-01-08 06:59:50
Tagged date                              : UTC 2017-01-08 06:59:50

Other Files in this Torrent
Youjo Shenki (Special Episodes)/Youjo Shenki #00 [0E08D86F].mp4
beta
Anime DDL+NZB mirror
Current Time: 23/04/2024 08:46



About/FAQs

Discord