File Size273.6 MB (286,862,513 bytes)
DownloadAnonFiles | ClickNUpload | DropAPK | Free | MultiUp
  • BdUpload
  • DownAce
  • Fichier
  • FileCloud
  • Filerio
  • FilesCdn
  • IndiShare
  • Kbagi
  • Turbobit
  • UpToBox
  • Uppit
| SolidFiles | ZippyShare
HashesCRC32: A8A67A96, MD5: 0B2069D77E355EBB928AF624AF14168C, SHA1: 749546338C4B7DAB29D23D6A8FCE5F0D4C14FE5B, SHA256: 2C6082A37402B92F451A512BE2B3F40BD0E2CAD43858A5EC3E3B8D8F81BF316E, ED2K: C1B489C1364E04190D0A171E219D232F
Screenshots
screenshotscreenshotscreenshotscreenshotscreenshot
SubtitlesAll Attachments | [Hafu | LostYears Edit] Subs [eng, ASS], [Hafu | LostYears Edit] Signs/Songs [eng, ASS]
Additional Info
General
Unique ID                                : 62416227809211632802420806869936555244 (0x2EF4ED9F8558FFBE5F43F619FEE4C4EC)
Complete name                            : [AkihitoSubs] Youjo Senki - S01E05.mkv
Format                                   : Matroska
Format version                           : Version 4
File size                                : 274 MiB
Duration                                 : 23 min 40 s
Overall bit rate                         : 1 615 kb/s
Encoded date                             : UTC 2020-12-24 21:44:12
Writing application                      : mkvmerge v51.0.0 ('I Wish') 64-bit
Writing library                          : libebml v1.4.0 + libmatroska v1.6.2 / Lavf58.45.100
Attachments                              : OpenSans-Semibold.ttf / IWAOMINPRO-BD-FATE.TTF / Lato-Bol.ttf / Lato-BolIta.ttf / Plantagenet Cherokee.ttf / BASKVILL.TTF / FOT-NewCinemaAStd-D.otf / Goudy Text MT Std Regular.otf / Budhrg.ttf / EraserDust CE.ttf / Roboto-Black.ttf / Roboto-Bold_4.ttf / Roboto-Medium_0.ttf

Video
ID                                       : 1
Format                                   : HEVC
Format/Info                              : High Efficiency Video Coding
Format profile                           : Main 10@L4@Main
Codec ID                                 : V_MPEGH/ISO/HEVC
Duration                                 : 23 min 40 s
Bit rate                                 : 1 183 kb/s
Width                                    : 1 920 pixels
Height                                   : 1 080 pixels
Display aspect ratio                     : 16:9
Frame rate mode                          : Constant
Frame rate                               : 23.976 (24000/1001) FPS
Color space                              : YUV
Chroma subsampling                       : 4:2:0
Bit depth                                : 10 bits
Bits/(Pixel*Frame)                       : 0.024
Stream size                              : 200 MiB (73%)
Writing library                          : x265 0.0:[Linux][GCC 6.3.0][64 bit] 10bit
Encoding settings                        : wpp / ctu=64 / min-cu-size=8 / max-tu-size=32 / tu-intra-depth=1 / tu-inter-depth=1 / me=1 / subme=2 / merange=57 / no-rect / no-amp / max-merge=2 / temporal-mvp / no-early-skip / rskip / rdpenalty=0 / no-tskip / no-tskip-fast / strong-intra-smoothing / no-lossless / no-cu-lossless / no-constrained-intra / no-fast-intra / open-gop / no-temporal-layers / interlace=0 / keyint=250 / min-keyint=23 / scenecut=40 / rc-lookahead=20 / lookahead-slices=6 / bframes=4 / bframe-bias=0 / b-adapt=2 / ref=3 / limit-refs=3 / no-limit-modes / weightp / no-weightb / aq-mode=1 / qg-size=32 / aq-strength=1.00 / cbqpoffs=0 / crqpoffs=0 / rd=3 / psy-rd=2.00 / rdoq-level=0 / psy-rdoq=0.00 / log2-max-poc-lsb=8 / no-rd-refine / signhide / deblock=0:0 / sao / no-sao-non-deblock / b-pyramid / cutree / no-intra-refresh / rc=crf / crf=20.0 / qcomp=0.60 / qpmin=0 / qpmax=69 / qpstep=4 / ipratio=1.40 / pbratio=1.30
Default                                  : Yes
Forced                                   : No

Audio #1
ID                                       : 2
Format                                   : Opus
Codec ID                                 : A_OPUS
Duration                                 : 23 min 40 s
Bit rate                                 : 192 kb/s
Channel(s)                               : 2 channels
Channel layout                           : L R
Sampling rate                            : 48.0 kHz
Frame rate                               : 50.001 FPS (960 SPF)
Compression mode                         : Lossy
Stream size                              : 32.5 MiB (12%)
Writing library                          : Lavc58.91.100 libopus
Language                                 : Japanese
Default                                  : Yes
Forced                                   : No

Audio #2
ID                                       : 3
Format                                   : Opus
Codec ID                                 : A_OPUS
Duration                                 : 23 min 40 s
Bit rate                                 : 199 kb/s
Channel(s)                               : 2 channels
Channel layout                           : L R
Sampling rate                            : 48.0 kHz
Frame rate                               : 50.001 FPS (960 SPF)
Compression mode                         : Lossy
Stream size                              : 33.6 MiB (12%)
Writing library                          : Lavc58.91.100 libopus
Language                                 : English
Default                                  : No
Forced                                   : No

Text #1
ID                                       : 4
Format                                   : ASS
Codec ID                                 : S_TEXT/ASS
Codec ID/Info                            : Advanced Sub Station Alpha
Duration                                 : 23 min 36 s
Bit rate                                 : 154 b/s
Count of elements                        : 428
Compression mode                         : Lossless
Stream size                              : 26.8 KiB (0%)
Title                                    : [Hafu | LostYears Edit] Subs
Language                                 : English
Default                                  : Yes
Forced                                   : No

Text #2
ID                                       : 5
Format                                   : ASS
Codec ID                                 : S_TEXT/ASS
Codec ID/Info                            : Advanced Sub Station Alpha
Duration                                 : 21 min 51 s
Bit rate                                 : 34 b/s
Count of elements                        : 47
Compression mode                         : Lossless
Stream size                              : 5.55 KiB (0%)
Title                                    : [Hafu | LostYears Edit] Signs/Songs
Language                                 : English
Default                                  : No
Forced                                   : No

Menu
00:00:00.000                             : :Chapter 1
00:01:03.981                             : :Chapter 2
00:12:59.946                             : :Chapter 3

Other Files in this Torrent
[AkihitoSubs] Youjo Senki - S01E05.mkv
beta
Anime DDL+NZB mirror
Current Time: 24/03/2023 03:13



About/FAQs

Discord