File Size260.9 MB (273,556,091 bytes)
DownloadAnonFiles | ClickNUpload | DropAPK | Free | MultiUp
  • BdUpload
  • DownAce
  • Fichier
  • FileCloud
  • Filerio
  • FilesCdn
  • IndiShare
  • Kbagi
  • Turbobit
  • UpToBox
  • Uppit
| SolidFiles | ZippyShare
HashesCRC32: 454A3567, MD5: C13EF3C3E8F89CA991C4FA87A2E5AA2B, SHA1: 021986F73865BF5F2CD30C055109EBA3EE0F7620, SHA256: 8EBDB4D680006006FB186959E5D641D3A7D2CFF1CE2ACF272A1C273B4A6DD6D3, ED2K: 43EF3D02AFF2961D73A3B988B9561FEC
Screenshots
screenshotscreenshotscreenshotscreenshotscreenshot
SubtitlesAll Attachments | [Hafu | LostYears Edit] Subs [eng, ASS], [Hafu | LostYears Edit] Signs/Songs [eng, ASS]
Additional Info
General
Unique ID                                : 282269054514545914690860626117339698757 (0xD45B0ADDC37A0D3092B43C4BEC3CD645)
Complete name                            : [AkihitoSubs] Youjo Senki - S01E06.mkv
Format                                   : Matroska
Format version                           : Version 4
File size                                : 261 MiB
Duration                                 : 23 min 41 s
Overall bit rate                         : 1 540 kb/s
Encoded date                             : UTC 2020-12-24 21:44:15
Writing application                      : mkvmerge v51.0.0 ('I Wish') 64-bit
Writing library                          : libebml v1.4.0 + libmatroska v1.6.2 / Lavf58.45.100
Attachments                              : OpenSans-Semibold.ttf / Lato-BolIta.ttf / Lato-Bol.ttf / FOT-NewCinemaAStd-D.otf / Goudy Text MT Std Regular.otf / Plantagenet Cherokee.ttf / BASKVILL.TTF / IWAOMINPRO-BD-FATE.TTF / Budhrg.ttf / EraserDust CE.ttf / Roboto-Black.ttf / Roboto-Bold_4.ttf / Roboto-Medium_0.ttf

Video
ID                                       : 1
Format                                   : HEVC
Format/Info                              : High Efficiency Video Coding
Format profile                           : Main 10@L4@Main
Codec ID                                 : V_MPEGH/ISO/HEVC
Duration                                 : 23 min 41 s
Bit rate                                 : 1 110 kb/s
Width                                    : 1 920 pixels
Height                                   : 1 080 pixels
Display aspect ratio                     : 16:9
Frame rate mode                          : Constant
Frame rate                               : 23.976 (24000/1001) FPS
Color space                              : YUV
Chroma subsampling                       : 4:2:0
Bit depth                                : 10 bits
Bits/(Pixel*Frame)                       : 0.022
Stream size                              : 188 MiB (72%)
Writing library                          : x265 0.0:[Linux][GCC 6.3.0][64 bit] 10bit
Encoding settings                        : wpp / ctu=64 / min-cu-size=8 / max-tu-size=32 / tu-intra-depth=1 / tu-inter-depth=1 / me=1 / subme=2 / merange=57 / no-rect / no-amp / max-merge=2 / temporal-mvp / no-early-skip / rskip / rdpenalty=0 / no-tskip / no-tskip-fast / strong-intra-smoothing / no-lossless / no-cu-lossless / no-constrained-intra / no-fast-intra / open-gop / no-temporal-layers / interlace=0 / keyint=250 / min-keyint=23 / scenecut=40 / rc-lookahead=20 / lookahead-slices=6 / bframes=4 / bframe-bias=0 / b-adapt=2 / ref=3 / limit-refs=3 / no-limit-modes / weightp / no-weightb / aq-mode=1 / qg-size=32 / aq-strength=1.00 / cbqpoffs=0 / crqpoffs=0 / rd=3 / psy-rd=2.00 / rdoq-level=0 / psy-rdoq=0.00 / log2-max-poc-lsb=8 / no-rd-refine / signhide / deblock=0:0 / sao / no-sao-non-deblock / b-pyramid / cutree / no-intra-refresh / rc=crf / crf=20.0 / qcomp=0.60 / qpmin=0 / qpmax=69 / qpstep=4 / ipratio=1.40 / pbratio=1.30
Default                                  : Yes
Forced                                   : No

Audio #1
ID                                       : 2
Format                                   : Opus
Codec ID                                 : A_OPUS
Duration                                 : 23 min 40 s
Bit rate                                 : 191 kb/s
Channel(s)                               : 2 channels
Channel layout                           : L R
Sampling rate                            : 48.0 kHz
Frame rate                               : 50.000 FPS (960 SPF)
Compression mode                         : Lossy
Stream size                              : 32.4 MiB (12%)
Writing library                          : Lavc58.91.100 libopus
Language                                 : Japanese
Default                                  : Yes
Forced                                   : No

Audio #2
ID                                       : 3
Format                                   : Opus
Codec ID                                 : A_OPUS
Duration                                 : 23 min 41 s
Bit rate                                 : 197 kb/s
Channel(s)                               : 2 channels
Channel layout                           : L R
Sampling rate                            : 48.0 kHz
Frame rate                               : 50.000 FPS (960 SPF)
Compression mode                         : Lossy
Stream size                              : 33.3 MiB (13%)
Writing library                          : Lavc58.91.100 libopus
Language                                 : English
Default                                  : No
Forced                                   : No

Text #1
ID                                       : 4
Format                                   : ASS
Codec ID                                 : S_TEXT/ASS
Codec ID/Info                            : Advanced Sub Station Alpha
Duration                                 : 23 min 39 s
Bit rate                                 : 188 b/s
Count of elements                        : 480
Compression mode                         : Lossless
Stream size                              : 32.6 KiB (0%)
Title                                    : [Hafu | LostYears Edit] Subs
Language                                 : English
Default                                  : Yes
Forced                                   : No

Text #2
ID                                       : 5
Format                                   : ASS
Codec ID                                 : S_TEXT/ASS
Codec ID/Info                            : Advanced Sub Station Alpha
Duration                                 : 23 min 39 s
Bit rate                                 : 67 b/s
Count of elements                        : 117
Compression mode                         : Lossless
Stream size                              : 11.7 KiB (0%)
Title                                    : [Hafu | LostYears Edit] Signs/Songs
Language                                 : English
Default                                  : No
Forced                                   : No

Menu
00:00:00.000                             : :Chapter 4
00:02:11.006                             : :Chapter 5
00:12:02.013                             : :Chapter 6
00:21:29.038                             : :Chapter 7
00:22:59.003                             : :Chapter 8

Other Files in this Torrent
[AkihitoSubs] Youjo Senki - S01E06.mkv
beta
Anime DDL+NZB mirror
Current Time: 22/04/2024 06:57



About/FAQs

Discord