File Size11.93 MB (12,507,005 bytes)
DownloadAnonFiles | ClickNUpload | DropAPK | Free | MultiUp
  • BdUpload
  • DownAce
  • Fichier
  • FileCloud
  • Filerio
  • FilesCdn
  • IndiShare
  • Kbagi
  • Turbobit
  • UpToBox
  • Uppit
| SolidFiles | ZippyShare
HashesCRC32: 75E8168D, MD5: 3AF561054D8835732F9C996FF57F9828, SHA1: D9142CC2095B894D6BBEC90C0207227D37B0FEF7, SHA256: 8C924CDEDA5F3C42D96C8B7E498E06F623BD3279DB2A876EB8FA2A8028662329, ED2K: 943F3B26B9477E05F6C0F44234D350E6
Screenshots
screenshotscreenshotscreenshot
Additional Info
General
Complete name                            : Youjo Shenki #01 [75E8168D].mp4
Format                                   : MPEG-4
Format profile                           : Base Media / Version 2
Codec ID                                 : mp42 (isom/mp42)
File size                                : 11.9 MiB
Duration                                 : 2 min 30 s
Overall bit rate mode                    : Variable
Overall bit rate                         : 666 kb/s
Encoded date                             : UTC 2017-01-12 06:33:13
Tagged date                              : UTC 2017-01-12 06:33:13
gsst                                     : 0
gstd                                     : 150372

Video
ID                                       : 1
Format                                   : AVC
Format/Info                              : Advanced Video Codec
Format profile                           : Main@L3.1
Format settings                          : CABAC / 3 Ref Frames
Format settings, CABAC                   : Yes
Format settings, ReFrames                : 3 frames
Codec ID                                 : avc1
Codec ID/Info                            : Advanced Video Coding
Duration                                 : 2 min 30 s
Bit rate                                 : 537 kb/s
Width                                    : 1 280 pixels
Height                                   : 720 pixels
Display aspect ratio                     : 16:9
Frame rate mode                          : Variable
Frame rate                               : 23.976 (23976/1000) FPS
Minimum frame rate                       : 23.955 FPS
Maximum frame rate                       : 23.962 FPS
Color space                              : YUV
Chroma subsampling                       : 4:2:0
Bit depth                                : 8 bits
Scan type                                : Progressive
Bits/(Pixel*Frame)                       : 0.024
Stream size                              : 9.61 MiB (81%)
Title                                    : ISO Media file produced by Google Inc.
Encoded date                             : UTC 2017-01-12 06:33:13
Tagged date                              : UTC 2017-01-12 06:33:13
Color range                              : Limited
Color primaries                          : BT.709
Transfer characteristics                 : BT.709
Matrix coefficients                      : BT.709
Codec configuration box                  : avcC

Audio
ID                                       : 2
Format                                   : AAC LC
Format/Info                              : Advanced Audio Codec Low Complexity
Codec ID                                 : mp4a-40-2
Duration                                 : 2 min 30 s
Bit rate mode                            : Variable
Bit rate                                 : 126 kb/s
Channel(s)                               : 2 channels
Channel layout                           : L R
Sampling rate                            : 44.1 kHz
Frame rate                               : 43.066 FPS (1024 SPF)
Compression mode                         : Lossy
Stream size                              : 2.25 MiB (19%)
Title                                    : ISO Media file produced by Google Inc.
Encoded date                             : UTC 2017-01-12 06:33:13
Tagged date                              : UTC 2017-01-12 06:33:13

Other Files in this Torrent
Youjo Shenki (Special Episodes)/Youjo Shenki #01 [75E8168D].mp4
beta
Anime DDL+NZB mirror
Current Time: 18/07/2024 04:02



About/FAQs

Discord