File Size12.56 MB (13,165,578 bytes)
DownloadAnonFiles | ClickNUpload | DropAPK | Free | MultiUp
  • BdUpload
  • DownAce
  • Fichier
  • FileCloud
  • Filerio
  • FilesCdn
  • IndiShare
  • Kbagi
  • Turbobit
  • UpToBox
  • Uppit
| SolidFiles | ZippyShare
HashesCRC32: 87276460, MD5: B6D6A2BFCBC46EE80CCB268B2FCF349E, SHA1: C1C792B1AA128D71A024CF48AB125766948813D2, SHA256: D4970C0F7699CCD6CCE095E2B2DE9FD652ABEBED5AA5811D75D389987CF97558, ED2K: 8714FC255BF69CCFD16C0AF88B051456
Screenshots
screenshotscreenshotscreenshot
Additional Info
General
Complete name                            : Youjo Shenki #02 [87276460].mp4
Format                                   : MPEG-4
Format profile                           : Base Media / Version 2
Codec ID                                 : mp42 (isom/mp42)
File size                                : 12.6 MiB
Duration                                 : 2 min 30 s
Overall bit rate mode                    : Variable
Overall bit rate                         : 701 kb/s
Encoded date                             : UTC 2017-01-20 05:58:33
Tagged date                              : UTC 2017-01-20 05:58:33
gsst                                     : 0
gstd                                     : 150372

Video
ID                                       : 1
Format                                   : AVC
Format/Info                              : Advanced Video Codec
Format profile                           : Main@L3.1
Format settings                          : CABAC / 3 Ref Frames
Format settings, CABAC                   : Yes
Format settings, ReFrames                : 3 frames
Codec ID                                 : avc1
Codec ID/Info                            : Advanced Video Coding
Duration                                 : 2 min 30 s
Bit rate                                 : 572 kb/s
Width                                    : 1 280 pixels
Height                                   : 720 pixels
Display aspect ratio                     : 16:9
Frame rate mode                          : Variable
Frame rate                               : 23.976 (23976/1000) FPS
Minimum frame rate                       : 23.955 FPS
Maximum frame rate                       : 23.962 FPS
Color space                              : YUV
Chroma subsampling                       : 4:2:0
Bit depth                                : 8 bits
Scan type                                : Progressive
Bits/(Pixel*Frame)                       : 0.026
Stream size                              : 10.2 MiB (82%)
Title                                    : ISO Media file produced by Google Inc.
Encoded date                             : UTC 2017-01-20 05:58:33
Tagged date                              : UTC 2017-01-20 05:58:33
Color range                              : Limited
Color primaries                          : BT.709
Transfer characteristics                 : BT.709
Matrix coefficients                      : BT.709
Codec configuration box                  : avcC

Audio
ID                                       : 2
Format                                   : AAC LC
Format/Info                              : Advanced Audio Codec Low Complexity
Codec ID                                 : mp4a-40-2
Duration                                 : 2 min 30 s
Bit rate mode                            : Variable
Bit rate                                 : 126 kb/s
Channel(s)                               : 2 channels
Channel layout                           : L R
Sampling rate                            : 44.1 kHz
Frame rate                               : 43.066 FPS (1024 SPF)
Compression mode                         : Lossy
Stream size                              : 2.25 MiB (18%)
Title                                    : ISO Media file produced by Google Inc.
Encoded date                             : UTC 2017-01-20 05:58:33
Tagged date                              : UTC 2017-01-20 05:58:33

Other Files in this Torrent
Youjo Shenki (Special Episodes)/Youjo Shenki #02 [87276460].mp4
beta
Anime DDL+NZB mirror
Current Time: 29/05/2024 02:36



About/FAQs

Discord