File Size1.165 GB (1,250,732,411 bytes)
DownloadAnonFiles | ClickNUpload | DropAPK
Free: Part1, Part2
MultiUp: Part1
  • BdUpload
  • DownAce
  • Fichier
  • FileCloud
  • Filerio
  • FilesCdn
  • IndiShare
  • Kbagi
  • Turbobit
  • UpToBox
  • Uppit
, Part2
  • BdUpload
  • DownAce
  • Fichier
  • FileCloud
  • Filerio
  • FilesCdn
  • IndiShare
  • Kbagi
  • Turbobit
  • UpToBox
  • Uppit
, Part3
  • BdUpload
  • DownAce
  • Fichier
  • FileCloud
  • Filerio
  • FilesCdn
  • IndiShare
  • Kbagi
  • Turbobit
  • UpToBox
  • Uppit

SolidFiles: Part1, Part2, Part3
ZippyShare: Part1, Part2, Part3
HashesCRC32: 3DC1804B, MD5: 1CFEC162FD1F3013E7A98F2FFC632995, SHA1: 96A263577E7573DE1328146861CA845EBEE82807, SHA256: 5A26335AF0DE75B4A946522F27B289A3E3D29C55747ABA4969571DD67C08E5F8, ED2K: 467BE3E253D8B50B8434262FCDF5F7DF
Screenshots
screenshotscreenshotscreenshotscreenshotscreenshot
SubtitlesAll Attachments | Fran├žais [fre, ASS], English [eng, ASS], ita [ASS], rus [ASS], por [ASS], spa [ASS], ara [ASS], spa [ASS]
Additional Info
General
Unique ID                                : 187242589592254440860376464446416631628 (0x8CDD9C6B8BF8315BFA266CBFD42A374C)
Complete name                            : [AkihitoSubs] Youjo Senki - Movie.mkv
Format                                   : Matroska
Format version                           : Version 4
File size                                : 1.16 GiB
Duration                                 : 1 h 38 min
Overall bit rate                         : 1 694 kb/s
Encoded date                             : UTC 2020-12-25 03:37:17
Writing application                      : mkvmerge v51.0.0 ('I Wish') 64-bit
Writing library                          : libebml v1.4.0 + libmatroska v1.6.2 / Lavf58.45.100

Video
ID                                       : 1
Format                                   : HEVC
Format/Info                              : High Efficiency Video Coding
Format profile                           : Main 10@L4@Main
Codec ID                                 : V_MPEGH/ISO/HEVC
Duration                                 : 1 h 38 min
Bit rate                                 : 1 432 kb/s
Width                                    : 1 920 pixels
Height                                   : 1 080 pixels
Display aspect ratio                     : 16:9
Frame rate mode                          : Constant
Frame rate                               : 23.976 (24000/1001) FPS
Color space                              : YUV
Chroma subsampling                       : 4:2:0
Bit depth                                : 10 bits
Bits/(Pixel*Frame)                       : 0.029
Stream size                              : 1 009 MiB (85%)
Writing library                          : x265 0.0:[Linux][GCC 6.3.0][64 bit] 10bit
Encoding settings                        : wpp / ctu=64 / min-cu-size=8 / max-tu-size=32 / tu-intra-depth=1 / tu-inter-depth=1 / me=1 / subme=2 / merange=57 / no-rect / no-amp / max-merge=2 / temporal-mvp / no-early-skip / rskip / rdpenalty=0 / no-tskip / no-tskip-fast / strong-intra-smoothing / no-lossless / no-cu-lossless / no-constrained-intra / no-fast-intra / open-gop / no-temporal-layers / interlace=0 / keyint=250 / min-keyint=23 / scenecut=40 / rc-lookahead=20 / lookahead-slices=6 / bframes=4 / bframe-bias=0 / b-adapt=2 / ref=3 / limit-refs=3 / no-limit-modes / weightp / no-weightb / aq-mode=1 / qg-size=32 / aq-strength=1.00 / cbqpoffs=0 / crqpoffs=0 / rd=3 / psy-rd=2.00 / rdoq-level=0 / psy-rdoq=0.00 / log2-max-poc-lsb=8 / no-rd-refine / signhide / deblock=0:0 / sao / no-sao-non-deblock / b-pyramid / cutree / no-intra-refresh / rc=crf / crf=20.0 / qcomp=0.60 / qpmin=0 / qpmax=69 / qpstep=4 / ipratio=1.40 / pbratio=1.30
Default                                  : Yes
Forced                                   : No

Audio
ID                                       : 2
Format                                   : Opus
Codec ID                                 : A_OPUS
Duration                                 : 1 h 38 min
Bit rate                                 : 258 kb/s
Channel(s)                               : 2 channels
Channel layout                           : L R
Sampling rate                            : 48.0 kHz
Frame rate                               : 50.000 FPS (960 SPF)
Compression mode                         : Lossy
Stream size                              : 181 MiB (15%)
Title                                    : FLAC 2.0
Writing library                          : Lavc58.91.100 libopus
Language                                 : Japanese
Default                                  : Yes
Forced                                   : No

Text #1
ID                                       : 3
Format                                   : ASS
Codec ID                                 : S_TEXT/ASS
Codec ID/Info                            : Advanced Sub Station Alpha
Duration                                 : 1 h 34 min
Bit rate                                 : 120 b/s
Count of elements                        : 1348
Compression mode                         : Lossless
Stream size                              : 83.6 KiB (0%)
Title                                    : Fran├žais
Language                                 : French
Default                                  : No
Forced                                   : No

Text #2
ID                                       : 4
Format                                   : ASS
Codec ID                                 : S_TEXT/ASS
Codec ID/Info                            : Advanced Sub Station Alpha
Duration                                 : 1 h 34 min
Bit rate                                 : 116 b/s
Count of elements                        : 1362
Compression mode                         : Lossless
Stream size                              : 80.8 KiB (0%)
Title                                    : English
Language                                 : English
Default                                  : Yes
Forced                                   : No

Text #3
ID                                       : 5
Format                                   : ASS
Codec ID                                 : S_TEXT/ASS
Codec ID/Info                            : Advanced Sub Station Alpha
Duration                                 : 1 h 34 min
Bit rate                                 : 133 b/s
Count of elements                        : 1436
Compression mode                         : Lossless
Stream size                              : 92.5 KiB (0%)
Language                                 : Italian
Default                                  : No
Forced                                   : No

Text #4
ID                                       : 6
Format                                   : ASS
Codec ID                                 : S_TEXT/ASS
Codec ID/Info                            : Advanced Sub Station Alpha
Duration                                 : 1 h 34 min
Bit rate                                 : 220 b/s
Count of elements                        : 1368
Compression mode                         : Lossless
Stream size                              : 153 KiB (0%)
Language                                 : Russian
Default                                  : No
Forced                                   : No

Text #5
ID                                       : 7
Format                                   : ASS
Codec ID                                 : S_TEXT/ASS
Codec ID/Info                            : Advanced Sub Station Alpha
Duration                                 : 1 h 34 min
Bit rate                                 : 139 b/s
Count of elements                        : 1362
Compression mode                         : Lossless
Stream size                              : 96.9 KiB (0%)
Language                                 : Portuguese
Default                                  : No
Forced                                   : No

Text #6
ID                                       : 8
Format                                   : ASS
Codec ID                                 : S_TEXT/ASS
Codec ID/Info                            : Advanced Sub Station Alpha
Duration                                 : 1 h 34 min
Bit rate                                 : 141 b/s
Count of elements                        : 1365
Compression mode                         : Lossless
Stream size                              : 97.8 KiB (0%)
Language                                 : Spanish
Default                                  : No
Forced                                   : No

Text #7
ID                                       : 9
Format                                   : ASS
Codec ID                                 : S_TEXT/ASS
Codec ID/Info                            : Advanced Sub Station Alpha
Duration                                 : 1 h 34 min
Bit rate                                 : 168 b/s
Count of elements                        : 1362
Compression mode                         : Lossless
Stream size                              : 117 KiB (0%)
Language                                 : Arabic
Default                                  : No
Forced                                   : No

Text #8
ID                                       : 10
Format                                   : ASS
Codec ID                                 : S_TEXT/ASS
Codec ID/Info                            : Advanced Sub Station Alpha
Duration                                 : 1 h 34 min
Bit rate                                 : 133 b/s
Count of elements                        : 1365
Compression mode                         : Lossless
Stream size                              : 92.5 KiB (0%)
Language                                 : Spanish
Default                                  : No
Forced                                   : No

Menu
00:00:00.000                             : :A Part
00:11:33.359                             : :B Part
00:24:24.672                             : :C Part
00:39:54.392                             : :D Part
01:01:09.416                             : :E Part
01:20:18.397                             : :F Part
01:30:31.384                             : :Ending 1
01:32:01.391                             : :Epilogue
01:35:05.450                             : :Ending 2

Other Files in this Torrent
[AkihitoSubs] Youjo Senki - Movie.mkv
beta
Anime DDL+NZB mirror
Current Time: 24/03/2023 02:51



About/FAQs

Discord