File Size235.0 MB (246,396,344 bytes)
DownloadClickNUpload | DailyUploads | DownloadGG | GoFile | KrakenFiles | MdiaLoad | MultiUp
  • BdUpload
  • DownAce
  • Fichier
  • FileCloud
  • Filerio
  • FilesCdn
  • IndiShare
  • Kbagi
  • Turbobit
  • UpToBox
  • Uppit
| Uppit
HashesCRC32: EDC96E4A, MD5: D3F03C7BF40277A40FED784F41AE4ED2, SHA1: 919115D6796BD65F602449D7B510914E7A69A7E7, SHA256: 514F7EAAD8688D0375AA2590709ADED4244AD30F105BD332159B9CD57C128519, ED2K: 5C5F74F4DEB2AC2677E2C9EF47D919FA
Screenshots
screenshotscreenshotscreenshotscreenshotscreenshot
SubtitlesAll Attachments | eng [ASS]
Additional Info
General
Unique ID                                : 240759809492497067850385570164245781478 (0xB520A7141D09F8BD52211E9E42C3DBE6)
Complete name                            : [SanKyuu] Net-juu no Susume - 11 [BD 1080p AV1 OPUS] [EDC96E4A].mkv
Format                                   : Matroska
Format version                           : Version 4
File size                                : 235 MiB
Duration                                 : 24 min 11 s
Overall bit rate                         : 1 358 kb/s
Frame rate                               : 23.976 FPS
Encoded date                             : 2023-02-19 13:37:04 UTC
Writing application                      : mkvmerge v67.0.0 ('Under Stars') 64-bit
Writing library                          : libebml v1.4.2 + libmatroska v1.6.4
Attachments                              : Aero Matics Bold.ttf / AGENCYB.ttf / AGENCYR.ttf / A-OTF-FUTOMINA101PR5-BOLD.otf / A-OTF-Jun34Pro-Medium.otf / FOT Manyo Sosho Std Stripped EB.otf / Gandhisans-Bold.otf / Gandhisans-Bolditalic.otf / GARFIELD the CAT.ttf

Video
ID                                       : 1
Format                                   : AV1
Format/Info                              : AOMedia Video 1
Format profile                           : Main@L4.0
Codec ID                                 : V_AV1
Duration                                 : 24 min 11 s
Bit rate                                 : 1 126 kb/s
Width                                    : 1 920 pixels
Height                                   : 1 080 pixels
Display aspect ratio                     : 16:9
Frame rate mode                          : Variable
Frame rate                               : 23.976 FPS
Color space                              : YUV
Chroma subsampling                       : 4:2:0
Bit depth                                : 10 bits
Bits/(Pixel*Frame)                       : 0.023
Stream size                              : 195 MiB (83%)
Default                                  : Yes
Forced                                   : No
Color range                              : Limited

Audio
ID                                       : 2
Format                                   : Opus
Codec ID                                 : A_OPUS
Duration                                 : 24 min 11 s
Bit rate                                 : 157 kb/s
Channel(s)                               : 2 channels
Channel layout                           : L R
Sampling rate                            : 48.0 kHz
Frame rate                               : 50.000 FPS (960 SPF)
Compression mode                         : Lossy
Stream size                              : 27.2 MiB (12%)
Writing library                          : Lavc59.25.100 libopus
Language                                 : Japanese
Default                                  : Yes
Forced                                   : No

Text
ID                                       : 3
Format                                   : ASS
Codec ID                                 : S_TEXT/ASS
Codec ID/Info                            : Advanced Sub Station Alpha
Duration                                 : 23 min 40 s
Bit rate                                 : 1 586 b/s
Frame rate                               : 1.712 FPS
Count of elements                        : 2432
Compression mode                         : Lossless
Stream size                              : 275 KiB (0%)
Language                                 : English
Default                                  : Yes
Forced                                   : No

Menu
00:00:00.000                             : en:OP
00:01:31.008                             : en:Part A
00:11:48.917                             : en:Part B
00:22:40.568                             : en:ED

Other Files in this Torrent
[SanKyuu] Net-juu no Susume - 11 [BD 1080p AV1 OPUS] [EDC96E4A].mkv
beta
Anime DDL+NZB mirror
Current Time: 20/04/2024 10:13



About/FAQs

Discord