NC/[SanKyuu] Net-juu no Susume (Creditless ED Ver.1) [BD 1080p AV1 OPUS] [48607EFF].mkv


File Size7.942 MB (8,327,791 bytes)
DownloadClickNUpload | DailyUploads | DownloadGG | GoFile | KrakenFiles | MdiaLoad | MultiUp
  • BdUpload
  • DownAce
  • Fichier
  • FileCloud
  • Filerio
  • FilesCdn
  • IndiShare
  • Kbagi
  • Turbobit
  • UpToBox
  • Uppit
| Uppit
HashesCRC32: 48607EFF, MD5: 52C1C8A89B9D98CCD447D4E3390B73D6, SHA1: 0129CF4191B4BC7B85201FAF0C5755EBDADFDDEB, SHA256: 4BA9FAF23C8CF68C90813DD0C220740B3CF6DF18E0E926EC83F8414DE028A447, ED2K: 59CB2703BAC6357152780A06E6A093F9
Screenshots
screenshotscreenshot
Additional Info
General
Unique ID                                : 8912900545549358176257834574677150255 (0x6B48FECAE1BBB8E21BED4538FF20A2F)
Complete name                            : [SanKyuu] Net-juu no Susume (Creditless ED Ver.1) [BD 1080p AV1 OPUS] [48607EFF].mkv
Format                                   : Matroska
Format version                           : Version 4
File size                                : 7.94 MiB
Duration                                 : 1 min 30 s
Overall bit rate                         : 739 kb/s
Frame rate                               : 23.976 FPS
Encoded date                             : 2023-02-19 14:25:28 UTC
Writing application                      : mkvmerge v67.0.0 ('Under Stars') 64-bit
Writing library                          : libebml v1.4.2 + libmatroska v1.6.4

Video
ID                                       : 1
Format                                   : AV1
Format/Info                              : AOMedia Video 1
Format profile                           : Main@L4.0
Codec ID                                 : V_AV1
Duration                                 : 1 min 30 s
Bit rate                                 : 579 kb/s
Width                                    : 1 920 pixels
Height                                   : 1 080 pixels
Display aspect ratio                     : 16:9
Frame rate mode                          : Variable
Frame rate                               : 23.976 (24000/1001) FPS
Color space                              : YUV
Chroma subsampling                       : 4:2:0
Bit depth                                : 10 bits
Bits/(Pixel*Frame)                       : 0.012
Stream size                              : 6.21 MiB (78%)
Default                                  : Yes
Forced                                   : No
Color range                              : Limited

Audio
ID                                       : 2
Format                                   : Opus
Codec ID                                 : A_OPUS
Duration                                 : 1 min 30 s
Bit rate                                 : 158 kb/s
Channel(s)                               : 2 channels
Channel layout                           : L R
Sampling rate                            : 48.0 kHz
Frame rate                               : 50.002 FPS (960 SPF)
Compression mode                         : Lossy
Stream size                              : 1.69 MiB (21%)
Writing library                          : Lavc59.25.100 libopus
Language                                 : Japanese
Default                                  : Yes
Forced                                   : No

Other Files in this Torrent
NC/[SanKyuu] Net-juu no Susume (Creditless ED Ver.1) [BD 1080p AV1 OPUS] [48607EFF].mkv
beta
Anime DDL+NZB mirror
Current Time: 20/04/2024 10:02



About/FAQs

Discord