File Size277.5 MB (291,029,668 bytes)
DownloadClickNUpload | DailyUploads | DownloadGG | GoFile | KrakenFiles | MdiaLoad | MultiUp
  • BdUpload
  • DownAce
  • Fichier
  • FileCloud
  • Filerio
  • FilesCdn
  • IndiShare
  • Kbagi
  • Turbobit
  • UpToBox
  • Uppit
| Uppit
HashesCRC32: 7B60B7EA, MD5: EA8A9ED60EE2F910FB8339D93A005E59, SHA1: 84F725492FC69102EF7C037EB8F1FAF11A36BDDE, SHA256: DA72ABAE7F19E4DB953FFBA76A5CC2BAC5F4B707155CEB764A60CD074BC59D14, ED2K: 5CC7DB5532C565B44242CEC25B48BF60
Screenshots
screenshotscreenshotscreenshotscreenshotscreenshot
SubtitlesAll Attachments | eng [ASS]
Additional Info
General
Unique ID                                : 189423836077811652797998399641219499666 (0x8E81B42CC7CC8BD4A61EFCE00B980692)
Complete name                            : [SanKyuu] Net-juu no Susume - 02 [BD 1080p AV1 OPUS] [7B60B7EA].mkv
Format                                   : Matroska
Format version                           : Version 4
File size                                : 278 MiB
Duration                                 : 26 min 34 s
Overall bit rate                         : 1 461 kb/s
Frame rate                               : 23.976 FPS
Encoded date                             : 2023-02-19 05:41:26 UTC
Writing application                      : mkvmerge v67.0.0 ('Under Stars') 64-bit
Writing library                          : libebml v1.4.2 + libmatroska v1.6.4
Attachments                              : a song for jennifer bold.ttf / AeroDB Normal.ttf / AGATA.ttf / Angella_demo.otf / Antipasto.ttf / A-OTF-FUTOMINA101PR5-BOLD.otf / A-OTF-Jun34Pro-Medium.otf / A-OTF-Jun501Pro-Bold.otf / FOT Manyo Sosho Std Stripped EB.otf / Gandhisans-Bold.otf / Gandhisans-Bolditalic.otf / Hira v8.ttf / Insaniburger.ttf

Video
ID                                       : 1
Format                                   : AV1
Format/Info                              : AOMedia Video 1
Format profile                           : Main@L4.0
Codec ID                                 : V_AV1
Duration                                 : 26 min 34 s
Bit rate                                 : 1 213 kb/s
Width                                    : 1 920 pixels
Height                                   : 1 080 pixels
Display aspect ratio                     : 16:9
Frame rate mode                          : Variable
Frame rate                               : 23.976 FPS
Color space                              : YUV
Chroma subsampling                       : 4:2:0
Bit depth                                : 10 bits
Bits/(Pixel*Frame)                       : 0.024
Stream size                              : 230 MiB (83%)
Default                                  : Yes
Forced                                   : No
Color range                              : Limited

Audio
ID                                       : 2
Format                                   : Opus
Codec ID                                 : A_OPUS
Duration                                 : 26 min 34 s
Bit rate                                 : 155 kb/s
Channel(s)                               : 2 channels
Channel layout                           : L R
Sampling rate                            : 48.0 kHz
Frame rate                               : 50.001 FPS (960 SPF)
Compression mode                         : Lossy
Stream size                              : 29.4 MiB (11%)
Writing library                          : Lavc59.25.100 libopus
Language                                 : Japanese
Default                                  : Yes
Forced                                   : No

Text
ID                                       : 3
Format                                   : ASS
Codec ID                                 : S_TEXT/ASS
Codec ID/Info                            : Advanced Sub Station Alpha
Duration                                 : 26 min 17 s
Bit rate                                 : 658 b/s
Frame rate                               : 0.791 FPS
Count of elements                        : 1248
Compression mode                         : Lossless
Stream size                              : 127 KiB (0%)
Language                                 : English
Default                                  : Yes
Forced                                   : No

Menu
00:00:00.000                             : en:OP
00:01:31.008                             : en:Part A
00:13:05.159                             : en:Part B
00:24:48.070                             : en:ED
00:26:18.076                             : en:Next

Other Files in this Torrent
[SanKyuu] Net-juu no Susume - 02 [BD 1080p AV1 OPUS] [7B60B7EA].mkv
beta
Anime DDL+NZB mirror
Current Time: 20/04/2024 11:24



About/FAQs

Discord