File Size267.6 MB (280,595,073 bytes)
DownloadClickNUpload | DailyUploads | DownloadGG | GoFile | KrakenFiles | MdiaLoad | MultiUp
  • BdUpload
  • DownAce
  • Fichier
  • FileCloud
  • Filerio
  • FilesCdn
  • IndiShare
  • Kbagi
  • Turbobit
  • UpToBox
  • Uppit
| Uppit
HashesCRC32: BE41488A, MD5: 54073CB7E4C46CD4F166E89AD84CCB55, SHA1: D161B9FEDFF84114775D866F927E0F01EE2FE82F, SHA256: 7E39286D97771EC0DAC8F0B68C5F7F866AC09331020FEF8B29150B2FA1BE9B6F, ED2K: E54372848596B6176D32865565BDC619
Screenshots
screenshotscreenshotscreenshotscreenshotscreenshot
SubtitlesAll Attachments | eng [ASS]
Additional Info
General
Unique ID                                : 285101986820755302532943281956191734374 (0xD67CA53675AD9825A0945E9AF1680A66)
Complete name                            : [SanKyuu] Net-juu no Susume - 01 [BD 1080p AV1 OPUS] [BE41488A].mkv
Format                                   : Matroska
Format version                           : Version 4
File size                                : 268 MiB
Duration                                 : 24 min 14 s
Overall bit rate                         : 1 543 kb/s
Frame rate                               : 23.976 FPS
Encoded date                             : 2023-02-19 04:51:19 UTC
Writing application                      : mkvmerge v67.0.0 ('Under Stars') 64-bit
Writing library                          : libebml v1.4.2 + libmatroska v1.6.4
Attachments                              : AbelBecker Bold.ttf / Aero Matics Bold.ttf / AeroDB Normal.ttf / A-OTF-FUTOMINA101PR5-BOLD.otf / A-OTF-Jun501Pro-Bold.otf / AXIS Std B.otf / FOT Manyo Sosho Std Stripped EB.otf / Fot-Dotgothic12std-M.otf / Gandhisans-Bold.otf / Gandhisans-Bolditalic.otf / HannaHandwriting.ttf

Video
ID                                       : 1
Format                                   : AV1
Format/Info                              : AOMedia Video 1
Format profile                           : Main@L4.0
Codec ID                                 : V_AV1
Duration                                 : 24 min 14 s
Bit rate                                 : 1 293 kb/s
Width                                    : 1 920 pixels
Height                                   : 1 080 pixels
Display aspect ratio                     : 16:9
Frame rate mode                          : Variable
Frame rate                               : 23.976 FPS
Color space                              : YUV
Chroma subsampling                       : 4:2:0
Bit depth                                : 10 bits
Bits/(Pixel*Frame)                       : 0.026
Stream size                              : 224 MiB (84%)
Default                                  : Yes
Forced                                   : No
Color range                              : Limited

Audio
ID                                       : 2
Format                                   : Opus
Codec ID                                 : A_OPUS
Duration                                 : 24 min 14 s
Bit rate                                 : 154 kb/s
Channel(s)                               : 2 channels
Channel layout                           : L R
Sampling rate                            : 48.0 kHz
Frame rate                               : 50.001 FPS (960 SPF)
Compression mode                         : Lossy
Stream size                              : 26.7 MiB (10%)
Title                                    : PCM->FLAC
Writing library                          : Lavc59.25.100 libopus
Language                                 : Japanese
Default                                  : Yes
Forced                                   : No

Text
ID                                       : 3
Format                                   : ASS
Codec ID                                 : S_TEXT/ASS
Codec ID/Info                            : Advanced Sub Station Alpha
Duration                                 : 23 min 58 s
Bit rate                                 : 1 120 b/s
Frame rate                               : 1.285 FPS
Count of elements                        : 1848
Compression mode                         : Lossless
Stream size                              : 197 KiB (0%)
Language                                 : English
Default                                  : Yes
Forced                                   : No

Menu #1
00:00:00.000                             : en:OP
00:01:31.008                             : en:Part A
00:10:36.052                             : en:Part B
00:22:28.389                             : en:ED
00:23:58.395                             : en:Next

Menu #2
00:00:00.000                             : en:OP
00:01:31.008                             : en:Part A
00:10:36.052                             : en:Part B
00:22:28.389                             : en:ED
00:23:58.395                             : en:Next

Other Files in this Torrent
[SanKyuu] Net-juu no Susume - 01 [BD 1080p AV1 OPUS] [BE41488A].mkv
beta
Anime DDL+NZB mirror
Current Time: 20/04/2024 10:41



About/FAQs

Discord