File Size213.2 MB (223,562,792 bytes)
DownloadClickNUpload | DailyUploads | DownloadGG | GoFile | KrakenFiles | MdiaLoad | MultiUp
  • BdUpload
  • DownAce
  • Fichier
  • FileCloud
  • Filerio
  • FilesCdn
  • IndiShare
  • Kbagi
  • Turbobit
  • UpToBox
  • Uppit
| Uppit
HashesCRC32: 8CAAD1D0, MD5: 845140B97C28DF90AA04833B4D4521DE, SHA1: F48259A83F90AC92BAFCBAE1652695CE102D259B, SHA256: A52F24B3815957C3B006F949F271E9186511BEC7D1021DBF7DFA9BDF63CEC2F8, ED2K: DB14FB69FD53BF54E108D1DC233E6454
Screenshots
screenshotscreenshotscreenshotscreenshotscreenshot
SubtitlesAll Attachments | eng [ASS]
Additional Info
General
Unique ID                                : 3211980529144843981309061889446848495 (0x26A9ADDE2666E14CC9149DC292B27EF)
Complete name                            : [SanKyuu] Net-juu no Susume - 09 [BD 1080p AV1 OPUS] [8CAAD1D0].mkv
Format                                   : Matroska
Format version                           : Version 4
File size                                : 213 MiB
Duration                                 : 23 min 52 s
Overall bit rate                         : 1 249 kb/s
Frame rate                               : 23.976 FPS
Encoded date                             : 2023-02-19 12:45:11 UTC
Writing application                      : mkvmerge v67.0.0 ('Under Stars') 64-bit
Writing library                          : libebml v1.4.2 + libmatroska v1.6.4
Attachments                              : AeroDB Normal.ttf / A-OTF-FUTOMINA101PR5-BOLD.otf / A-OTF-Jun34Pro-Medium.otf / FOT Manyo Sosho Std Stripped EB.otf / Gandhisans-Bold.otf / Gandhisans-Bolditalic.otf / HannaHandwriting.ttf

Video
ID                                       : 1
Format                                   : AV1
Format/Info                              : AOMedia Video 1
Format profile                           : Main@L4.0
Codec ID                                 : V_AV1
Duration                                 : 23 min 52 s
Bit rate                                 : 1 018 kb/s
Width                                    : 1 920 pixels
Height                                   : 1 080 pixels
Display aspect ratio                     : 16:9
Frame rate mode                          : Variable
Frame rate                               : 23.976 FPS
Color space                              : YUV
Chroma subsampling                       : 4:2:0
Bit depth                                : 10 bits
Bits/(Pixel*Frame)                       : 0.020
Stream size                              : 174 MiB (82%)
Default                                  : Yes
Forced                                   : No
Color range                              : Limited

Audio
ID                                       : 2
Format                                   : Opus
Codec ID                                 : A_OPUS
Duration                                 : 23 min 52 s
Bit rate                                 : 157 kb/s
Channel(s)                               : 2 channels
Channel layout                           : L R
Sampling rate                            : 48.0 kHz
Frame rate                               : 50.000 FPS (960 SPF)
Compression mode                         : Lossy
Stream size                              : 26.8 MiB (13%)
Writing library                          : Lavc59.25.100 libopus
Language                                 : Japanese
Default                                  : Yes
Forced                                   : No

Text
ID                                       : 3
Format                                   : ASS
Codec ID                                 : S_TEXT/ASS
Codec ID/Info                            : Advanced Sub Station Alpha
Duration                                 : 23 min 35 s
Bit rate                                 : 334 b/s
Frame rate                               : 0.450 FPS
Count of elements                        : 637
Compression mode                         : Lossless
Stream size                              : 57.7 KiB (0%)
Language                                 : English
Default                                  : Yes
Forced                                   : No

Menu
00:00:00.000                             : en:OP
00:01:31.008                             : en:Part A
00:12:13.524                             : en:Part B
00:22:06.200                             : en:ED
00:23:36.206                             : en:Next

Other Files in this Torrent
[SanKyuu] Net-juu no Susume - 09 [BD 1080p AV1 OPUS] [8CAAD1D0].mkv
beta
Anime DDL+NZB mirror
Current Time: 20/04/2024 11:14



About/FAQs

Discord