File Size243.1 MB (254,892,134 bytes)
DownloadClickNUpload | DailyUploads | DownloadGG | GoFile | KrakenFiles | MdiaLoad | MultiUp
  • BdUpload
  • DownAce
  • Fichier
  • FileCloud
  • Filerio
  • FilesCdn
  • IndiShare
  • Kbagi
  • Turbobit
  • UpToBox
  • Uppit
| Uppit
HashesCRC32: 8F19DDC4, MD5: C6644865A4348DCA41B3771F44E4B8F1, SHA1: 44E37F6EA6048D62C6E70C069460EE9D4D022073, SHA256: E9E6E3BB01A41036A20B887147B0D5B4A7E893B7C427342D11533BE9F19144E9, ED2K: E72F4ECE6319823573ACF33C41B50F3B
Screenshots
screenshotscreenshotscreenshotscreenshotscreenshot
SubtitlesAll Attachments | eng [ASS]
Additional Info
General
Unique ID                                : 288683598094807282340792039371898089574 (0xD92E70483F9ABDA8C725A481862BF066)
Complete name                            : [SanKyuu] Net-juu no Susume - 04 [BD 1080p AV1 OPUS] [8F19DDC4].mkv
Format                                   : Matroska
Format version                           : Version 4
File size                                : 243 MiB
Duration                                 : 24 min 21 s
Overall bit rate                         : 1 395 kb/s
Frame rate                               : 23.976 FPS
Encoded date                             : 2023-02-19 07:07:40 UTC
Writing application                      : mkvmerge v67.0.0 ('Under Stars') 64-bit
Writing library                          : libebml v1.4.2 + libmatroska v1.6.4
Attachments                              : Aero Matics Bold.ttf / AeroDB Normal.ttf / AGENCYR.ttf / Angella_demo.otf / A-OTF-FUTOMINA101PR5-BOLD.otf / A-OTF-Jun34Pro-Medium.otf / BuckeyeSSK-Bold.ttf / FOT Manyo Sosho Std Stripped EB.otf / Gandhisans-Bold.otf / Gandhisans-Bolditalic.otf / Hira v8.ttf / Lato-Lig.ttf / Quaky-8Y7D.ttf / serangkaianpattern.ttf

Video
ID                                       : 1
Format                                   : AV1
Format/Info                              : AOMedia Video 1
Format profile                           : Main@L4.0
Codec ID                                 : V_AV1
Duration                                 : 24 min 21 s
Bit rate                                 : 1 156 kb/s
Width                                    : 1 920 pixels
Height                                   : 1 080 pixels
Display aspect ratio                     : 16:9
Frame rate mode                          : Variable
Frame rate                               : 23.976 FPS
Color space                              : YUV
Chroma subsampling                       : 4:2:0
Bit depth                                : 10 bits
Bits/(Pixel*Frame)                       : 0.023
Stream size                              : 201 MiB (83%)
Default                                  : Yes
Forced                                   : No
Color range                              : Limited

Audio
ID                                       : 2
Format                                   : Opus
Codec ID                                 : A_OPUS
Duration                                 : 24 min 21 s
Bit rate                                 : 156 kb/s
Channel(s)                               : 2 channels
Channel layout                           : L R
Sampling rate                            : 48.0 kHz
Frame rate                               : 50.001 FPS (960 SPF)
Compression mode                         : Lossy
Stream size                              : 27.2 MiB (11%)
Writing library                          : Lavc59.25.100 libopus
Language                                 : Japanese
Default                                  : Yes
Forced                                   : No

Text
ID                                       : 3
Format                                   : ASS
Codec ID                                 : S_TEXT/ASS
Codec ID/Info                            : Advanced Sub Station Alpha
Duration                                 : 24 min 4 s
Bit rate                                 : 5 351 b/s
Frame rate                               : 5.118 FPS
Count of elements                        : 7394
Compression mode                         : Lossless
Stream size                              : 944 KiB (0%)
Language                                 : English
Default                                  : Yes
Forced                                   : No

Menu
00:00:00.000                             : en:OP
00:01:31.008                             : en:Part A
00:14:26.616                             : en:Part B
00:22:35.354                             : en:ED
00:24:05.319                             : en:Next

Other Files in this Torrent
[SanKyuu] Net-juu no Susume - 04 [BD 1080p AV1 OPUS] [8F19DDC4].mkv
beta
Anime DDL+NZB mirror
Current Time: 20/04/2024 10:49



About/FAQs

Discord