File Size192.7 MB (202,019,161 bytes)
DownloadClickNUpload | DailyUploads | DownloadGG | GoFile | KrakenFiles | MdiaLoad | MultiUp
  • BdUpload
  • DownAce
  • Fichier
  • FileCloud
  • Filerio
  • FilesCdn
  • IndiShare
  • Kbagi
  • Turbobit
  • UpToBox
  • Uppit
| Uppit
HashesCRC32: 800611BF, MD5: 1A0623A77802631437EBCB4A9DD2097D, SHA1: B5F61DD4A477811AC13922E276A6584F0B9C55CD, SHA256: 3232D8E0ADBBFEC66F5F828C47179DD902AD9F75ED9953569A42724407A77B18, ED2K: 31A3A1C8336C69D1E04DF726A932CB26
Screenshots
screenshotscreenshotscreenshotscreenshotscreenshot
SubtitlesAll Attachments | eng [ASS]
Additional Info
General
Unique ID                                : 292186432595358676656405324658232442112 (0xDBD10F5B5E18B8D296DEBC2C3D66BD00)
Complete name                            : [SanKyuu] Net-juu no Susume - 06 [BD 1080p AV1 OPUS] [800611BF].mkv
Format                                   : Matroska
Format version                           : Version 4
File size                                : 193 MiB
Duration                                 : 23 min 54 s
Overall bit rate                         : 1 127 kb/s
Frame rate                               : 23.976 FPS
Encoded date                             : 2023-02-19 08:46:57 UTC
Writing application                      : mkvmerge v67.0.0 ('Under Stars') 64-bit
Writing library                          : libebml v1.4.2 + libmatroska v1.6.4
Attachments                              : Aero Matics Bold.ttf / AeroDB Normal.ttf / AGENCYB.ttf / A-OTF-FUTOMINA101PR5-BOLD.otf / A-OTF-Jun34Pro-Medium.otf / BuckeyeSSK-Bold.ttf / ChalkDustExtended.ttf / FOT Manyo Sosho Std Stripped EB.otf / Gandhisans-Bold.otf / Gandhisans-Bolditalic.otf / Lato-Lig.ttf

Video
ID                                       : 1
Format                                   : AV1
Format/Info                              : AOMedia Video 1
Format profile                           : Main@L4.0
Codec ID                                 : V_AV1
Duration                                 : 23 min 54 s
Bit rate                                 : 893 kb/s
Width                                    : 1 920 pixels
Height                                   : 1 080 pixels
Display aspect ratio                     : 16:9
Frame rate mode                          : Variable
Frame rate                               : 23.976 FPS
Color space                              : YUV
Chroma subsampling                       : 4:2:0
Bit depth                                : 10 bits
Bits/(Pixel*Frame)                       : 0.018
Stream size                              : 153 MiB (79%)
Default                                  : Yes
Forced                                   : No
Color range                              : Limited

Audio
ID                                       : 2
Format                                   : Opus
Codec ID                                 : A_OPUS
Duration                                 : 23 min 54 s
Bit rate                                 : 159 kb/s
Channel(s)                               : 2 channels
Channel layout                           : L R
Sampling rate                            : 48.0 kHz
Frame rate                               : 50.000 FPS (960 SPF)
Compression mode                         : Lossy
Stream size                              : 27.2 MiB (14%)
Writing library                          : Lavc59.25.100 libopus
Language                                 : Japanese
Default                                  : Yes
Forced                                   : No

Text
ID                                       : 3
Format                                   : ASS
Codec ID                                 : S_TEXT/ASS
Codec ID/Info                            : Advanced Sub Station Alpha
Duration                                 : 23 min 37 s
Bit rate                                 : 439 b/s
Frame rate                               : 0.578 FPS
Count of elements                        : 819
Compression mode                         : Lossless
Stream size                              : 76.0 KiB (0%)
Language                                 : English
Default                                  : Yes
Forced                                   : No

Menu
00:00:00.000                             : en:OP
00:01:31.008                             : en:Part A
00:12:20.365                             : en:Part B
00:22:08.202                             : en:ED
00:23:38.208                             : en:Next

Other Files in this Torrent
[SanKyuu] Net-juu no Susume - 06 [BD 1080p AV1 OPUS] [800611BF].mkv
beta
Anime DDL+NZB mirror
Current Time: 20/04/2024 09:42



About/FAQs

Discord