NC/[SanKyuu] Net-juu no Susume (Creditless ED Ver.2) [BD 1080p AV1 OPUS] [08A4103B].mkv


File Size7.849 MB (8,230,284 bytes)
DownloadClickNUpload | DailyUploads | DownloadGG | GoFile | KrakenFiles | MdiaLoad | MultiUp
  • BdUpload
  • DownAce
  • Fichier
  • FileCloud
  • Filerio
  • FilesCdn
  • IndiShare
  • Kbagi
  • Turbobit
  • UpToBox
  • Uppit
| Uppit
HashesCRC32: 08A4103B, MD5: A05F356ACA7FB2402DC6C6E5D77C6F26, SHA1: 2D8983A42848D05D915C490CBD2B3E29D78946EB, SHA256: DB9AFF2AD1BE8AD322B4235D3199DC2902EEEF6AF07A14789F1C7E74D6AD59E2, ED2K: 24FFD6D69BAA68520B1C315872D25F68
Screenshots
screenshotscreenshot
Additional Info
General
Unique ID                                : 84079124279204780539687060080992871751 (0x3F410CE16CE2C078F24CA72EC5FA6547)
Complete name                            : [SanKyuu] Net-juu no Susume (Creditless ED Ver.2) [BD 1080p AV1 OPUS] [08A4103B].mkv
Format                                   : Matroska
Format version                           : Version 4
File size                                : 7.85 MiB
Duration                                 : 1 min 30 s
Overall bit rate                         : 731 kb/s
Frame rate                               : 23.976 FPS
Encoded date                             : 2023-02-19 14:28:11 UTC
Writing application                      : mkvmerge v67.0.0 ('Under Stars') 64-bit
Writing library                          : libebml v1.4.2 + libmatroska v1.6.4

Video
ID                                       : 1
Format                                   : AV1
Format/Info                              : AOMedia Video 1
Format profile                           : Main@L4.0
Codec ID                                 : V_AV1
Duration                                 : 1 min 30 s
Bit rate                                 : 570 kb/s
Width                                    : 1 920 pixels
Height                                   : 1 080 pixels
Display aspect ratio                     : 16:9
Frame rate mode                          : Variable
Frame rate                               : 23.976 (24000/1001) FPS
Color space                              : YUV
Chroma subsampling                       : 4:2:0
Bit depth                                : 10 bits
Bits/(Pixel*Frame)                       : 0.011
Stream size                              : 6.12 MiB (78%)
Default                                  : Yes
Forced                                   : No
Color range                              : Limited

Audio
ID                                       : 2
Format                                   : Opus
Codec ID                                 : A_OPUS
Duration                                 : 1 min 30 s
Bit rate                                 : 158 kb/s
Channel(s)                               : 2 channels
Channel layout                           : L R
Sampling rate                            : 48.0 kHz
Frame rate                               : 50.002 FPS (960 SPF)
Compression mode                         : Lossy
Stream size                              : 1.70 MiB (22%)
Writing library                          : Lavc59.25.100 libopus
Language                                 : Japanese
Default                                  : Yes
Forced                                   : No

Other Files in this Torrent
NC/[SanKyuu] Net-juu no Susume (Creditless ED Ver.2) [BD 1080p AV1 OPUS] [08A4103B].mkv
beta
Anime DDL+NZB mirror
Current Time: 20/04/2024 09:48



About/FAQs

Discord