NC/[SanKyuu] Net-juu no Susume (Creditless OP) [BD 1080p AV1 OPUS] [36851694].mkv


File Size23.86 MB (25,022,906 bytes)
DownloadClickNUpload | DailyUploads | DownloadGG | GoFile | KrakenFiles | MdiaLoad | MultiUp
  • BdUpload
  • DownAce
  • Fichier
  • FileCloud
  • Filerio
  • FilesCdn
  • IndiShare
  • Kbagi
  • Turbobit
  • UpToBox
  • Uppit
| Uppit
HashesCRC32: 36851694, MD5: DF278089F486F51A579E10B4011FCD59, SHA1: BC1D87F329149DB1299974CE48A3C7036575F4F5, SHA256: 7E6F2EDE8579FE700B32361472D964F3A02BF5DDF3A43516DD7A72769361E486, ED2K: 81F71060F484710F4978E1053FD5BBC3
Screenshots
screenshotscreenshot
Additional Info
General
Unique ID                                : 253217936702342061704795369875608853048 (0xBE80002C3E49185F533C3A1FB9D65A38)
Complete name                            : [SanKyuu] Net-juu no Susume (Creditless OP) [BD 1080p AV1 OPUS] [36851694].mkv
Format                                   : Matroska
Format version                           : Version 4
File size                                : 23.9 MiB
Duration                                 : 1 min 32 s
Overall bit rate                         : 2 174 kb/s
Frame rate                               : 23.976 FPS
Encoded date                             : 2023-02-19 14:31:33 UTC
Writing application                      : mkvmerge v67.0.0 ('Under Stars') 64-bit
Writing library                          : libebml v1.4.2 + libmatroska v1.6.4

Video
ID                                       : 1
Format                                   : AV1
Format/Info                              : AOMedia Video 1
Format profile                           : Main@L4.0
Codec ID                                 : V_AV1
Duration                                 : 1 min 32 s
Bit rate                                 : 2 005 kb/s
Width                                    : 1 920 pixels
Height                                   : 1 080 pixels
Display aspect ratio                     : 16:9
Frame rate mode                          : Variable
Frame rate                               : 23.976 (24000/1001) FPS
Color space                              : YUV
Chroma subsampling                       : 4:2:0
Bit depth                                : 10 bits
Bits/(Pixel*Frame)                       : 0.040
Stream size                              : 22.0 MiB (92%)
Default                                  : Yes
Forced                                   : No
Color range                              : Limited

Audio
ID                                       : 2
Format                                   : Opus
Codec ID                                 : A_OPUS
Duration                                 : 1 min 32 s
Bit rate                                 : 166 kb/s
Channel(s)                               : 2 channels
Channel layout                           : L R
Sampling rate                            : 48.0 kHz
Frame rate                               : 50.002 FPS (960 SPF)
Compression mode                         : Lossy
Stream size                              : 1.82 MiB (8%)
Writing library                          : Lavc59.25.100 libopus
Language                                 : Japanese
Default                                  : Yes
Forced                                   : No

Other Files in this Torrent
NC/[SanKyuu] Net-juu no Susume (Creditless OP) [BD 1080p AV1 OPUS] [36851694].mkv
beta
Anime DDL+NZB mirror
Current Time: 20/04/2024 10:26



About/FAQs

Discord