File Size211.2 MB (221,450,929 bytes)
DownloadClickNUpload | DailyUploads | DownloadGG | GoFile | KrakenFiles | MdiaLoad | MultiUp
  • BdUpload
  • DownAce
  • Fichier
  • FileCloud
  • Filerio
  • FilesCdn
  • IndiShare
  • Kbagi
  • Turbobit
  • UpToBox
  • Uppit
| Uppit
HashesCRC32: 2731C4E3, MD5: B5AE38E587DAD1F00DBDAC30356B22B6, SHA1: 4F06CC4BCA3EBEAB96A7CBE0D3B17B175D46BDA7, SHA256: 9C786B27BA6DD500E196FF3D6D3C5A92B0437B28BE45E0BDB5DC925FB61A8827, ED2K: 1C7ED5D8786C08941BA8D5A3314F41E1
Screenshots
screenshotscreenshotscreenshotscreenshotscreenshot
SubtitlesAll Attachments | eng [ASS]
Additional Info
General
Unique ID                                : 22039473461986192687689081938382417829 (0x1094A5EFC5E7EFB5BFD515868DC7EFA5)
Complete name                            : [SanKyuu] Net-juu no Susume - 10 [BD 1080p AV1 OPUS] [2731C4E3].mkv
Format                                   : Matroska
Format version                           : Version 4
File size                                : 211 MiB
Duration                                 : 23 min 57 s
Overall bit rate                         : 1 233 kb/s
Frame rate                               : 23.976 FPS
Encoded date                             : 2023-02-19 14:19:19 UTC
Writing application                      : mkvmerge v67.0.0 ('Under Stars') 64-bit
Writing library                          : libebml v1.4.2 + libmatroska v1.6.4
Attachments                              : Aero Matics Regular.ttf / AeroDB Normal.ttf / AGENCYB.ttf / A-OTF-FUTOMINA101PR5-BOLD.otf / A-OTF-Jun34Pro-Medium.otf / A-OTF-Jun501Pro-Bold.otf / FOT Manyo Sosho Std Stripped EB.otf / Gandhisans-Bold.otf / Gandhisans-Bolditalic.otf

Video
ID                                       : 1
Format                                   : AV1
Format/Info                              : AOMedia Video 1
Format profile                           : Main@L4.0
Codec ID                                 : V_AV1
Duration                                 : 23 min 57 s
Bit rate                                 : 978 kb/s
Width                                    : 1 920 pixels
Height                                   : 1 080 pixels
Display aspect ratio                     : 16:9
Frame rate mode                          : Variable
Frame rate                               : 23.976 (24000/1001) FPS
Color space                              : YUV
Chroma subsampling                       : 4:2:0
Bit depth                                : 10 bits
Bits/(Pixel*Frame)                       : 0.020
Stream size                              : 167 MiB (79%)
Default                                  : Yes
Forced                                   : No
Color range                              : Limited

Audio
ID                                       : 2
Format                                   : Opus
Codec ID                                 : A_OPUS
Duration                                 : 23 min 57 s
Bit rate                                 : 156 kb/s
Channel(s)                               : 2 channels
Channel layout                           : L R
Sampling rate                            : 48.0 kHz
Frame rate                               : 50.000 FPS (960 SPF)
Compression mode                         : Lossy
Stream size                              : 26.7 MiB (13%)
Writing library                          : Lavc59.25.100 libopus
Language                                 : Japanese
Default                                  : Yes
Forced                                   : No

Text
ID                                       : 3
Format                                   : ASS
Codec ID                                 : S_TEXT/ASS
Codec ID/Info                            : Advanced Sub Station Alpha
Duration                                 : 23 min 40 s
Bit rate                                 : 279 b/s
Frame rate                               : 0.415 FPS
Count of elements                        : 589
Compression mode                         : Lossless
Stream size                              : 48.5 KiB (0%)
Language                                 : English
Default                                  : Yes
Forced                                   : No

Menu
00:00:00.000                             : en:OP
00:01:31.008                             : en:Part A
00:09:23.021                             : en:Part B
00:21:58.984                             : en:ED
00:23:28.991                             : en:Next

Other Files in this Torrent
[SanKyuu] Net-juu no Susume - 10 [BD 1080p AV1 OPUS] [2731C4E3].mkv
beta
Anime DDL+NZB mirror
Current Time: 20/04/2024 10:18



About/FAQs

Discord