File Size246.9 MB (258,867,706 bytes)
DownloadClickNUpload | DailyUploads | DownloadGG | GoFile | KrakenFiles | MdiaLoad | MultiUp
  • BdUpload
  • DownAce
  • Fichier
  • FileCloud
  • Filerio
  • FilesCdn
  • IndiShare
  • Kbagi
  • Turbobit
  • UpToBox
  • Uppit
| Uppit
HashesCRC32: A8CFA58E, MD5: 40CDB58D8BF6B9C332EDE68E23169A90, SHA1: 5F633DB060D70995213CBF7F40F1ED8B8EF5B4C1, SHA256: 6FA1C12CDA20ADF3785812832A7F2839A1E5B5DC51B42423589909A193A0956B, ED2K: 4EF562EFC22470B4BDD726BB081C5662
Screenshots
screenshotscreenshotscreenshotscreenshotscreenshot
SubtitlesAll Attachments | eng [ASS]
Additional Info
General
Unique ID                                : 180746557448834822223656811705256308536 (0x87FA854ECB723201DB1168697FFAEF38)
Complete name                            : [SanKyuu] Net-juu no Susume - 03 [BD 1080p AV1 OPUS] [A8CFA58E].mkv
Format                                   : Matroska
Format version                           : Version 4
File size                                : 247 MiB
Duration                                 : 24 min 11 s
Overall bit rate                         : 1 426 kb/s
Frame rate                               : 23.976 FPS
Encoded date                             : 2023-02-19 06:23:52 UTC
Writing application                      : mkvmerge v67.0.0 ('Under Stars') 64-bit
Writing library                          : libebml v1.4.2 + libmatroska v1.6.4
Attachments                              : AbelBecker Bold.ttf / Aero Matics Bold.ttf / AeroDB Normal.ttf / AGENCYB.ttf / AGENCYR.ttf / Aller_Rg.ttf / Angella_demo.otf / A-OTF-FUTOMINA101PR5-BOLD.otf / A-OTF-Jun34Pro-Medium.otf / ARCENA.ttf / AXIS Std B.otf / FOT Manyo Sosho Std Stripped EB.otf / Gandhisans-Bold.otf / Gandhisans-Bolditalic.otf

Video
ID                                       : 1
Format                                   : AV1
Format/Info                              : AOMedia Video 1
Format profile                           : Main@L4.0
Codec ID                                 : V_AV1
Duration                                 : 24 min 11 s
Bit rate                                 : 1 182 kb/s
Width                                    : 1 920 pixels
Height                                   : 1 080 pixels
Display aspect ratio                     : 16:9
Frame rate mode                          : Variable
Frame rate                               : 23.976 FPS
Color space                              : YUV
Chroma subsampling                       : 4:2:0
Bit depth                                : 10 bits
Bits/(Pixel*Frame)                       : 0.024
Stream size                              : 205 MiB (83%)
Default                                  : Yes
Forced                                   : No
Color range                              : Limited

Audio
ID                                       : 2
Format                                   : Opus
Codec ID                                 : A_OPUS
Duration                                 : 24 min 11 s
Bit rate                                 : 157 kb/s
Channel(s)                               : 2 channels
Channel layout                           : L R
Sampling rate                            : 48.0 kHz
Frame rate                               : 50.000 FPS (960 SPF)
Compression mode                         : Lossy
Stream size                              : 27.2 MiB (11%)
Writing library                          : Lavc59.25.100 libopus
Language                                 : Japanese
Default                                  : Yes
Forced                                   : No

Text
ID                                       : 3
Format                                   : ASS
Codec ID                                 : S_TEXT/ASS
Codec ID/Info                            : Advanced Sub Station Alpha
Duration                                 : 23 min 55 s
Bit rate                                 : 751 b/s
Frame rate                               : 0.886 FPS
Count of elements                        : 1272
Compression mode                         : Lossless
Stream size                              : 132 KiB (0%)
Language                                 : English
Default                                  : Yes
Forced                                   : No

Menu
00:00:00.000                             : en:OP
00:01:31.008                             : en:Part A
00:10:11.236                             : en:Part B
00:22:25.803                             : en:ED
00:23:55.809                             : en:Next

Other Files in this Torrent
[SanKyuu] Net-juu no Susume - 03 [BD 1080p AV1 OPUS] [A8CFA58E].mkv
beta
Anime DDL+NZB mirror
Current Time: 20/04/2024 10:20



About/FAQs

Discord