File Size232.4 MB (243,671,431 bytes)
DownloadClickNUpload | DailyUploads | DownloadGG | GoFile | KrakenFiles | MdiaLoad | MultiUp
  • BdUpload
  • DownAce
  • Fichier
  • FileCloud
  • Filerio
  • FilesCdn
  • IndiShare
  • Kbagi
  • Turbobit
  • UpToBox
  • Uppit
| Uppit
HashesCRC32: 723A45DF, MD5: 840E21ED6F69A060AC169258276D23F6, SHA1: 1204079FAF60B687A5D5F3961A13804D42D79FE1, SHA256: 5C4EFD6D0ED37D246A2850C882FCF41231BF5B3D6D931FCDCEEAA773F0432759, ED2K: 40E2298F7E1210E071F1FF023024BB6D
Screenshots
screenshotscreenshotscreenshotscreenshotscreenshot
SubtitlesAll Attachments | eng [ASS]
Additional Info
General
Unique ID                                : 218617284103953050572043757879096547841 (0xA478284A29CB2A0FF7F5E755575C9A01)
Complete name                            : [SanKyuu] Net-juu no Susume - 05 [BD 1080p AV1 OPUS] [723A45DF].mkv
Format                                   : Matroska
Format version                           : Version 4
File size                                : 232 MiB
Duration                                 : 24 min 21 s
Overall bit rate                         : 1 334 kb/s
Frame rate                               : 23.976 FPS
Encoded date                             : 2023-02-19 07:57:23 UTC
Writing application                      : mkvmerge v67.0.0 ('Under Stars') 64-bit
Writing library                          : libebml v1.4.2 + libmatroska v1.6.4
Attachments                              : AbelBecker Bold.ttf / Aero Matics Bold.ttf / AeroDB Normal.ttf / AGENCYB.ttf / AGENCYR.ttf / A-OTF-FUTOMINA101PR5-BOLD.otf / A-OTF-Jun34Pro-Medium.otf / AXIS Std B.otf / calibril.ttf / FOT Manyo Sosho Std Stripped EB.otf / Fot-Dotgothic12std-M.otf / Gandhisans-Bold.otf / Gandhisans-Bolditalic.otf

Video
ID                                       : 1
Format                                   : AV1
Format/Info                              : AOMedia Video 1
Format profile                           : Main@L4.0
Codec ID                                 : V_AV1
Duration                                 : 24 min 21 s
Bit rate                                 : 1 070 kb/s
Width                                    : 1 920 pixels
Height                                   : 1 080 pixels
Display aspect ratio                     : 16:9
Frame rate mode                          : Variable
Frame rate                               : 23.976 FPS
Color space                              : YUV
Chroma subsampling                       : 4:2:0
Bit depth                                : 10 bits
Bits/(Pixel*Frame)                       : 0.022
Stream size                              : 186 MiB (80%)
Default                                  : Yes
Forced                                   : No
Color range                              : Limited

Audio
ID                                       : 2
Format                                   : Opus
Codec ID                                 : A_OPUS
Duration                                 : 24 min 21 s
Bit rate                                 : 162 kb/s
Channel(s)                               : 2 channels
Channel layout                           : L R
Sampling rate                            : 48.0 kHz
Frame rate                               : 50.001 FPS (960 SPF)
Compression mode                         : Lossy
Stream size                              : 28.2 MiB (12%)
Writing library                          : Lavc59.25.100 libopus
Language                                 : Japanese
Default                                  : Yes
Forced                                   : No

Text
ID                                       : 3
Format                                   : ASS
Codec ID                                 : S_TEXT/ASS
Codec ID/Info                            : Advanced Sub Station Alpha
Duration                                 : 24 min 5 s
Bit rate                                 : 1 260 b/s
Frame rate                               : 1.429 FPS
Count of elements                        : 2066
Compression mode                         : Lossless
Stream size                              : 222 KiB (0%)
Language                                 : English
Default                                  : Yes
Forced                                   : No

Menu
00:00:00.000                             : en:OP
00:01:31.008                             : en:Part A
00:12:51.854                             : en:Part B
00:22:35.771                             : en:ED
00:24:05.778                             : en:Next

Other Files in this Torrent
[SanKyuu] Net-juu no Susume - 05 [BD 1080p AV1 OPUS] [723A45DF].mkv
beta
Anime DDL+NZB mirror
Current Time: 20/04/2024 10:25



About/FAQs

Discord