File Size217.5 MB (228,103,857 bytes)
DownloadClickNUpload | DailyUploads | DownloadGG | GoFile | KrakenFiles | MdiaLoad | MultiUp
  • BdUpload
  • DownAce
  • Fichier
  • FileCloud
  • Filerio
  • FilesCdn
  • IndiShare
  • Kbagi
  • Turbobit
  • UpToBox
  • Uppit
| Uppit
HashesCRC32: 9CEF186D, MD5: C12C9B286529A2689059AABA8C2112B7, SHA1: 3A3084208B263E458CB0D5F68C5F29C2F7AD34AF, SHA256: 31375ABF3487F5A440673E17513A8D20A1E8E89259ECE266B23DB836A64C1A24, ED2K: D19174D601967241CC343EBA16D42DD9
Screenshots
screenshotscreenshotscreenshotscreenshotscreenshot
SubtitlesAll Attachments | eng [ASS]
Additional Info
General
Unique ID                                : 165124152000195793822603936791887437976 (0x7C39C14054E534EA47008659B6F56098)
Complete name                            : [SanKyuu] Net-juu no Susume - 08 [BD 1080p AV1 OPUS] [9CEF186D].mkv
Format                                   : Matroska
Format version                           : Version 4
File size                                : 218 MiB
Duration                                 : 24 min 46 s
Overall bit rate                         : 1 228 kb/s
Frame rate                               : 23.976 FPS
Encoded date                             : 2023-02-19 12:04:29 UTC
Writing application                      : mkvmerge v67.0.0 ('Under Stars') 64-bit
Writing library                          : libebml v1.4.2 + libmatroska v1.6.4
Attachments                              : AeroDB Normal.ttf / AGENCYB.ttf / A-OTF-FUTOMINA101PR5-BOLD.otf / A-OTF-Jun34Pro-Medium.otf / A-OTF-Jun501Pro-Bold.otf / AXIS Std B.otf / FOT Manyo Sosho Std Stripped EB.otf / Fot-Dotgothic12std-M.otf / Gandhisans-Bold.otf / Gandhisans-Bolditalic.otf / HTOWERT.ttf

Video
ID                                       : 1
Format                                   : AV1
Format/Info                              : AOMedia Video 1
Format profile                           : Main@L4.0
Codec ID                                 : V_AV1
Duration                                 : 24 min 46 s
Bit rate                                 : 950 kb/s
Width                                    : 1 920 pixels
Height                                   : 1 080 pixels
Display aspect ratio                     : 16:9
Frame rate mode                          : Variable
Frame rate                               : 23.976 (24000/1001) FPS
Color space                              : YUV
Chroma subsampling                       : 4:2:0
Bit depth                                : 10 bits
Bits/(Pixel*Frame)                       : 0.019
Stream size                              : 168 MiB (77%)
Default                                  : Yes
Forced                                   : No
Color range                              : Limited

Audio
ID                                       : 2
Format                                   : Opus
Codec ID                                 : A_OPUS
Duration                                 : 24 min 46 s
Bit rate                                 : 161 kb/s
Channel(s)                               : 2 channels
Channel layout                           : L R
Sampling rate                            : 48.0 kHz
Frame rate                               : 50.001 FPS (960 SPF)
Compression mode                         : Lossy
Stream size                              : 28.5 MiB (13%)
Writing library                          : Lavc59.25.100 libopus
Language                                 : Japanese
Default                                  : Yes
Forced                                   : No

Text
ID                                       : 3
Format                                   : ASS
Codec ID                                 : S_TEXT/ASS
Codec ID/Info                            : Advanced Sub Station Alpha
Duration                                 : 24 min 29 s
Bit rate                                 : 714 b/s
Frame rate                               : 0.963 FPS
Count of elements                        : 1416
Compression mode                         : Lossless
Stream size                              : 128 KiB (0%)
Language                                 : English
Default                                  : Yes
Forced                                   : No

Menu
00:00:00.000                             : en:OP
00:01:31.008                             : en:Part A
00:11:42.368                             : en:Part B
00:23:00.170                             : en:ED
00:24:30.177                             : en:Next

Other Files in this Torrent
[SanKyuu] Net-juu no Susume - 08 [BD 1080p AV1 OPUS] [9CEF186D].mkv
beta
Anime DDL+NZB mirror
Current Time: 20/04/2024 11:19



About/FAQs

Discord