File Size239.6 MB (251,191,955 bytes)
DownloadAnonFiles | EmbedUpload | Jheberg | MirrorStack | MultiUpload | Sendspace
ShareBeast: Part1, Part2
HashesCRC32: 63C06EBB, MD5: C81C0747E042F8120DFF8593E6D97D52, SHA1: 7B39D8BADBDA4939D94C85C2934283D184EB0DC9, SHA256: C0BAA132E290E0C03D4FEF64A3DDADD3C2C26169AA04CAD29747E6BCD4FE5AEA, ED2K: 14BD15B0F680E1F9C7C73FE9382DBD73
Screenshots
screenshotscreenshotscreenshotscreenshotscreenshot
SubtitlesAll Attachments | #4: Styled Subtitles - Full [eng, ASS], #5: Styled Subtitles - Kara Only [eng, ASS]
Additional Info
General
Unique ID                                : 244525033178660143468146579365578430862 (0xB7F5CEF05C39836B9A4E4C0E0AE4598E)
Complete name                            : [S-A]_Hunter_x_Hunter_-_62_[x264-vorbis][63C06EBB].mkv
Format                                   : Matroska
Format version                           : Version 2
File size                                : 240 MiB
Duration                                 : 23mn 54s
Overall bit rate mode                    : Variable
Overall bit rate                         : 1 401 Kbps
Movie name                               : [S-A] Hunter x Hunter - 62
Encoded date                             : UTC 2011-07-01 05:30:17
Writing application                      : mkvmerge v3.4.0 ('Rapunzel') built on May 15 2010 09:38:20
Writing library                          : libebml v0.8.0 + libmatroska v0.9.0
Attachment                               : Yes / Yes / Yes / Yes / Yes

Video
ID                                       : 1
Format                                   : AVC
Format/Info                              : Advanced Video Codec
Format profile                           : High@L3.1
Format settings, CABAC                   : Yes
Format settings, ReFrames                : 8 frames
Codec ID                                 : V_MPEG4/ISO/AVC
Duration                                 : 23mn 54s
Bit rate                                 : 1 160 Kbps
Width                                    : 640 pixels
Height                                   : 480 pixels
Display aspect ratio                     : 4:3
Frame rate mode                          : Constant
Frame rate                               : 23.976 fps
Color space                              : YUV
Chroma subsampling                       : 4:2:0
Bit depth                                : 8 bits
Scan type                                : Progressive
Bits/(Pixel*Frame)                       : 0.157
Stream size                              : 191 MiB (80%)
Title                                    : #Shindou-Anime@irc.rizon.net | http://shindou.magykal.net
Writing library                          : x264 core 114 r1913 5fd3dce
Encoding settings                        : cabac=1 / ref=8 / deblock=0:1:1 / analyse=0x3:0x133 / me=umh / subme=9 / psy=1 / psy_rd=0.40:0.00 / mixed_ref=1 / me_range=24 / chroma_me=1 / trellis=1 / 8x8dct=1 / cqm=0 / deadzone=21,11 / fast_pskip=0 / chroma_qp_offset=-2 / threads=3 / sliced_threads=0 / nr=0 / decimate=1 / interlaced=0 / constrained_intra=0 / bframes=8 / b_pyramid=2 / b_adapt=2 / b_bias=0 / direct=3 / weightb=1 / open_gop=0 / weightp=2 / keyint=240 / keyint_min=24 / scenecut=40 / intra_refresh=0 / rc_lookahead=60 / rc=2pass / mbtree=1 / bitrate=1160 / ratetol=1.0 / qcomp=0.60 / qpmin=0 / qpmax=69 / qpstep=4 / cplxblur=20.0 / qblur=0.5 / ip_ratio=1.40 / aq=1:0.60
Language                                 : English
Default                                  : No
Forced                                   : No

Audio #1
ID                                       : 2
Format                                   : Vorbis
Format settings, Floor                   : 1
Codec ID                                 : A_VORBIS
Duration                                 : 23mn 54s
Bit rate mode                            : Variable
Bit rate                                 : 128 Kbps
Channel count                            : 2 channels
Sampling rate                            : 48.0 KHz
Compression mode                         : Lossy
Stream size                              : 21.9 MiB (9%)
Title                                    : Japanese Vorbis 2.0
Writing library                          : aoTuV b5a  (UTC 2008-03-30)
Language                                 : Japanese
Default                                  : Yes
Forced                                   : No

Audio #2
ID                                       : 3
Format                                   : Vorbis
Format settings, Floor                   : 1
Codec ID                                 : A_VORBIS
Duration                                 : 23mn 54s
Bit rate mode                            : Variable
Bit rate                                 : 128 Kbps
Channel count                            : 2 channels
Sampling rate                            : 48.0 KHz
Compression mode                         : Lossy
Stream size                              : 21.9 MiB (9%)
Title                                    : English Vorbis 2.0
Writing library                          : aoTuV b5a  (UTC 2008-03-30)
Language                                 : English
Default                                  : No
Forced                                   : No

Text #1
ID                                       : 4
Format                                   : ASS
Codec ID                                 : S_TEXT/ASS
Codec ID/Info                            : Advanced Sub Station Alpha
Compression mode                         : Lossless
Title                                    : Styled Subtitles - Full
Language                                 : English
Default                                  : Yes
Forced                                   : No

Text #2
ID                                       : 5
Format                                   : ASS
Codec ID                                 : S_TEXT/ASS
Codec ID/Info                            : Advanced Sub Station Alpha
Compression mode                         : Lossless
Title                                    : Styled Subtitles - Kara Only
Language                                 : English
Default                                  : No
Forced                                   : No

Menu
00:00:00.000                             : en:Opening
00:01:05.565                             : en:Part A
00:09:41.080                             : en:Eyecatch
00:09:46.294                             : en:Part B
00:17:54.031                             : en:Montage
00:22:17.044                             : en:Epilogue
00:22:34.353                             : en:Ending

Other Files in this Torrent
[S-A]_Hunter_x_Hunter_-_62_[x264-vorbis][63C06EBB].mkv
beta
Anime DDL+NZB mirror
Current Time: 12/06/2024 18:50



About/FAQs

Discord