File Size231.4 MB (242,667,720 bytes)
DownloadAnonFiles | EmbedUpload | Jheberg | MirrorStack | MultiUpload | Sendspace
ShareBeast: Part1, Part2
HashesCRC32: ECE4008B, MD5: F23C3F433A148AA1332FB79AFED3AEEB, SHA1: 73F00EE122D577593C1A87DA2B33281C54A0331C, SHA256: BA6E07ACB766548B63990D592135E0097547E88D726183B5F02DFC607D2D853D, ED2K: 4E79855591E5335B6853394374E92A0E
Screenshots
screenshotscreenshotscreenshotscreenshotscreenshot
SubtitlesAll Attachments | #4: Styled Subtitles (Full) [eng, ASS], #5: Styled Subtitles (Kara Only) [eng, ASS]
Additional Info
General
Unique ID                                : 224836850695094114487204415591407871144 (0xA92600990FDD93669BF2FFD1C0E6E4A8)
Complete name                            : [S-A]_Hunter_x_Hunter_-_06v2_[x264-vorbis][ECE4008B].mkv
Format                                   : Matroska
Format version                           : Version 1
File size                                : 231 MiB
Duration                                 : 23mn 10s
Overall bit rate mode                    : Variable
Overall bit rate                         : 1 397 Kbps
Encoded date                             : UTC 2009-08-10 01:16:28
Writing application                      : mkvmerge v2.4.1 ('Use Me') built on Dec  5 2008 18:30:05
Writing library                          : libebml v0.7.7 + libmatroska v0.8.1
Attachment                               : Yes / Yes / Yes / Yes / Yes / Yes / Yes / Yes

Video
ID                                       : 1
Format                                   : AVC
Format/Info                              : Advanced Video Codec
Format profile                           : High@L5.1
Format settings, CABAC                   : Yes
Format settings, ReFrames                : 16 frames
Codec ID                                 : V_MPEG4/ISO/AVC
Duration                                 : 23mn 10s
Bit rate                                 : 1 150 Kbps
Width                                    : 640 pixels
Height                                   : 480 pixels
Display aspect ratio                     : 4:3
Frame rate mode                          : Constant
Frame rate                               : 23.976 fps
Color space                              : YUV
Chroma subsampling                       : 4:2:0
Bit depth                                : 8 bits
Scan type                                : Progressive
Bits/(Pixel*Frame)                       : 0.156
Stream size                              : 184 MiB (80%)
Writing library                          : x264 core 57 svn-714
Encoding settings                        : cabac=1 / ref=16 / deblock=1:-2:-1 / analyse=0x3:0x113 / me=umh / subme=6 / brdo=1 / mixed_ref=1 / me_range=16 / chroma_me=1 / trellis=2 / 8x8dct=1 / cqm=0 / deadzone=21,11 / chroma_qp_offset=0 / threads=3 / nr=0 / decimate=1 / mbaff=0 / bframes=16 / b_pyramid=1 / b_adapt=1 / b_bias=0 / direct=3 / wpredb=1 / bime=1 / keyint=250 / keyint_min=25 / scenecut=40(pre) / rc=2pass / bitrate=1150 / ratetol=1.0 / rceq='blurCplx^(1-qComp)' / qcomp=0.60 / qpmin=10 / qpmax=51 / qpstep=4 / cplxblur=20.0 / qblur=0.5 / ip_ratio=1.40 / pb_ratio=1.30
Default                                  : Yes
Forced                                   : No

Audio #1
ID                                       : 2
Format                                   : Vorbis
Format settings, Floor                   : 1
Codec ID                                 : A_VORBIS
Duration                                 : 23mn 10s
Bit rate mode                            : Variable
Bit rate                                 : 128 Kbps
Channel count                            : 2 channels
Sampling rate                            : 48.0 KHz
Compression mode                         : Lossy
Stream size                              : 21.2 MiB (9%)
Title                                    : Japanese Vorbis 2.0
Writing library                          : aoTuV Beta 5 (UTC 2006-10-24)
Language                                 : Japanese
Default                                  : Yes
Forced                                   : No

Audio #2
ID                                       : 3
Format                                   : Vorbis
Format settings, Floor                   : 1
Codec ID                                 : A_VORBIS
Duration                                 : 23mn 10s
Bit rate mode                            : Variable
Bit rate                                 : 128 Kbps
Channel count                            : 2 channels
Sampling rate                            : 48.0 KHz
Compression mode                         : Lossy
Stream size                              : 21.2 MiB (9%)
Title                                    : English Vorbis 2.0
Writing library                          : aoTuV Beta 5 (UTC 2006-10-24)
Language                                 : English
Default                                  : No
Forced                                   : No

Text #1
ID                                       : 4
Format                                   : ASS
Codec ID                                 : S_TEXT/ASS
Codec ID/Info                            : Advanced Sub Station Alpha
Compression mode                         : Lossless
Title                                    : Styled Subtitles (Full)
Language                                 : English
Default                                  : Yes
Forced                                   : No

Text #2
ID                                       : 5
Format                                   : ASS
Codec ID                                 : S_TEXT/ASS
Codec ID/Info                            : Advanced Sub Station Alpha
Compression mode                         : Lossless
Title                                    : Styled Subtitles (Kara Only)
Language                                 : English
Default                                  : No
Forced                                   : No

Menu
00:00:00.000                             : en:Opening Credits
00:01:06.942                             : en:Hunter x Hunter 06 - Part 1
00:10:30.588                             : en:Hunter x Hunter 06 - Part 2
00:21:33.291                             : en:Hunter x Hunter 07 - Preview
00:21:49.224                             : en:Ending Credits

Other Files in this Torrent
[S-A]_Hunter_x_Hunter_-_06v2_[x264-vorbis][ECE4008B].mkv
beta
Anime DDL+NZB mirror
Current Time: 12/06/2024 17:21



About/FAQs

Discord