File Size231.3 MB (242,574,785 bytes)
DownloadAnonFiles | EmbedUpload | Jheberg | MirrorStack | MultiUpload | Sendspace
ShareBeast: Part1, Part2
HashesCRC32: 079C4C62, MD5: EBAA1743A2815942CDFBFF6D1B860BC9, SHA1: 67B901084DDBA12DFE02696A72620C0A6AA02640, SHA256: 4EDAEC0DF46672409056F6D4AF7D71184B906BDEACBCE2AB23187A671C4CA988, ED2K: F97E13972D33995316F2953664E8D75F
Screenshots
screenshotscreenshotscreenshotscreenshot
SubtitlesAll Attachments | #4: Styled Subtitles (Full) [eng, ASS], #5: Styled Subtitles (Kara Only) [eng, ASS]
Additional Info
General
Unique ID                                : 172252139699761104740226668872432371025 (0x81968E2D98D216519953014F96084551)
Complete name                            : [S-A]_Hunter_x_Hunter_-_07v2_[x264-vorbis][079C4C62].mkv
Format                                   : Matroska
Format version                           : Version 1
File size                                : 231 MiB
Duration                                 : 23mn 9s
Overall bit rate mode                    : Variable
Overall bit rate                         : 1 397 Kbps
Encoded date                             : UTC 2009-08-10 01:18:36
Writing application                      : mkvmerge v2.4.1 ('Use Me') built on Dec  5 2008 18:30:05
Writing library                          : libebml v0.7.7 + libmatroska v0.8.1
Attachment                               : Yes / Yes / Yes / Yes / Yes / Yes / Yes / Yes

Video
ID                                       : 1
Format                                   : AVC
Format/Info                              : Advanced Video Codec
Format profile                           : High@L3.2
Format settings, CABAC                   : Yes
Format settings, ReFrames                : 16 frames
Codec ID                                 : V_MPEG4/ISO/AVC
Duration                                 : 23mn 9s
Bit rate                                 : 1 154 Kbps
Width                                    : 640 pixels
Height                                   : 480 pixels
Display aspect ratio                     : 4:3
Frame rate mode                          : Constant
Frame rate                               : 23.976 fps
Color space                              : YUV
Chroma subsampling                       : 4:2:0
Bit depth                                : 8 bits
Scan type                                : Progressive
Bits/(Pixel*Frame)                       : 0.157
Stream size                              : 184 MiB (80%)
Writing library                          : x264 core 67 r1130 8475977
Encoding settings                        : cabac=1 / ref=16 / deblock=1:-1:-1 / analyse=0x3:0x133 / me=umh / subme=9 / psy_rd=1.0:0.0 / mixed_ref=1 / me_range=16 / chroma_me=1 / trellis=0 / 8x8dct=1 / cqm=0 / deadzone=21,11 / chroma_qp_offset=-2 / threads=3 / nr=0 / decimate=1 / mbaff=0 / bframes=16 / b_pyramid=1 / b_adapt=1 / b_bias=0 / direct=3 / wpredb=1 / keyint=250 / keyint_min=25 / scenecut=40 / rc=2pass / bitrate=1154 / ratetol=1.0 / qcomp=0.60 / qpmin=10 / qpmax=51 / qpstep=4 / cplxblur=20.0 / qblur=0.5 / ip_ratio=1.40 / pb_ratio=1.30 / aq=1:1.00
Default                                  : Yes
Forced                                   : No

Audio #1
ID                                       : 2
Format                                   : Vorbis
Format settings, Floor                   : 1
Codec ID                                 : A_VORBIS
Duration                                 : 23mn 9s
Bit rate mode                            : Variable
Bit rate                                 : 128 Kbps
Channel count                            : 2 channels
Sampling rate                            : 48.0 KHz
Compression mode                         : Lossy
Stream size                              : 21.2 MiB (9%)
Title                                    : Japanese Vorbis 2.0
Writing library                          : aoTuV b5a  (UTC 2008-03-30)
Language                                 : Japanese
Default                                  : Yes
Forced                                   : No

Audio #2
ID                                       : 3
Format                                   : Vorbis
Format settings, Floor                   : 1
Codec ID                                 : A_VORBIS
Duration                                 : 23mn 9s
Bit rate mode                            : Variable
Bit rate                                 : 128 Kbps
Channel count                            : 2 channels
Sampling rate                            : 48.0 KHz
Compression mode                         : Lossy
Stream size                              : 21.2 MiB (9%)
Title                                    : English Vorbis 2.0
Writing library                          : aoTuV b5a  (UTC 2008-03-30)
Language                                 : English
Default                                  : No
Forced                                   : No

Text #1
ID                                       : 4
Format                                   : ASS
Codec ID                                 : S_TEXT/ASS
Codec ID/Info                            : Advanced Sub Station Alpha
Compression mode                         : Lossless
Title                                    : Styled Subtitles (Full)
Language                                 : English
Default                                  : Yes
Forced                                   : No

Text #2
ID                                       : 5
Format                                   : ASS
Codec ID                                 : S_TEXT/ASS
Codec ID/Info                            : Advanced Sub Station Alpha
Compression mode                         : Lossless
Title                                    : Styled Subtitles (Kara Only)
Language                                 : English
Default                                  : No
Forced                                   : No

Menu
00:00:00.000                             : en:Opening Credits
00:01:06.733                             : en:Hunter x Hunter 07 - Part 1
00:11:23.350                             : en:Hunter x Hunter 07 - Part 2
00:21:33.002                             : en:Hunter x Hunter 08 - Preview
00:21:48.976                             : en:Ending Credits

Other Files in this Torrent
[S-A]_Hunter_x_Hunter_-_07v2_[x264-vorbis][079C4C62].mkv
beta
Anime DDL+NZB mirror
Current Time: 12/06/2024 17:36



About/FAQs

Discord