File Size231.1 MB (242,299,400 bytes)
DownloadAnonFiles | EmbedUpload | Jheberg | MirrorStack | MultiUpload | Sendspace
ShareBeast: Part1, Part2
HashesCRC32: F5ABBDA0, MD5: ED5F48269C4C49CFF9D7D2D48F541025, SHA1: 3AECF047ECCE68DD44998CC1D01F569D2FE6B87B, SHA256: B8B2A6815F8A48A6CC8056D37FDBE6CD31A14A995C9B7353E5985E1BB331B8C1, ED2K: FE6824991B533D6BB75D2D1DF4FB5B29
Screenshots
screenshotscreenshotscreenshotscreenshotscreenshot
SubtitlesAll Attachments | #4: Styled Subtitles [eng, ASS], #5: Karaoke Only [eng, ASS]
Additional Info
General
Unique ID                                : 237355614561939129987072200020694046266 (0xB291074F66E52524820A4A7E4A6A963A)
Complete name                            : [S-A]_Hunter_x_Hunter_-_02_[x264-vorbis][F5ABBDA0].mkv
Format                                   : Matroska
Format version                           : Version 1
File size                                : 231 MiB
Duration                                 : 23mn 10s
Overall bit rate mode                    : Variable
Overall bit rate                         : 1 394 Kbps
Encoded date                             : UTC 2008-12-19 02:29:30
Writing application                      : mkvmerge v2.3.0 ('Freak U') built on Sep  8 2008 18:32:16
Writing library                          : libebml v0.7.7 + libmatroska v0.8.1
Attachment                               : Yes / Yes / Yes / Yes / Yes / Yes / Yes

Video
ID                                       : 1
Format                                   : AVC
Format/Info                              : Advanced Video Codec
Format profile                           : High@L5.1
Format settings, CABAC                   : Yes
Format settings, ReFrames                : 16 frames
Codec ID                                 : V_MPEG4/ISO/AVC
Duration                                 : 23mn 10s
Bit rate                                 : 1 150 Kbps
Width                                    : 640 pixels
Height                                   : 480 pixels
Display aspect ratio                     : 4:3
Frame rate mode                          : Constant
Frame rate                               : 23.976 fps
Color space                              : YUV
Chroma subsampling                       : 4:2:0
Bit depth                                : 8 bits
Scan type                                : Progressive
Bits/(Pixel*Frame)                       : 0.156
Stream size                              : 184 MiB (80%)
Writing library                          : x264 core 57 svn-714
Encoding settings                        : cabac=1 / ref=16 / deblock=1:-1:-1 / analyse=0x3:0x113 / me=umh / subme=6 / brdo=1 / mixed_ref=1 / me_range=16 / chroma_me=1 / trellis=2 / 8x8dct=1 / cqm=0 / deadzone=21,11 / chroma_qp_offset=0 / threads=3 / nr=0 / decimate=1 / mbaff=0 / bframes=16 / b_pyramid=1 / b_adapt=1 / b_bias=0 / direct=3 / wpredb=1 / bime=1 / keyint=250 / keyint_min=25 / scenecut=40(pre) / rc=2pass / bitrate=1150 / ratetol=1.0 / rceq='blurCplx^(1-qComp)' / qcomp=0.60 / qpmin=10 / qpmax=51 / qpstep=4 / cplxblur=20.0 / qblur=0.5 / ip_ratio=1.40 / pb_ratio=1.30
Default                                  : Yes
Forced                                   : No

Audio #1
ID                                       : 2
Format                                   : Vorbis
Format settings, Floor                   : 1
Codec ID                                 : A_VORBIS
Duration                                 : 23mn 10s
Bit rate mode                            : Variable
Bit rate                                 : 128 Kbps
Channel count                            : 2 channels
Sampling rate                            : 48.0 KHz
Compression mode                         : Lossy
Stream size                              : 21.2 MiB (9%)
Writing library                          : aoTuV Beta 5 (UTC 2006-10-24)
Language                                 : Japanese
Default                                  : Yes
Forced                                   : No

Audio #2
ID                                       : 3
Format                                   : Vorbis
Format settings, Floor                   : 1
Codec ID                                 : A_VORBIS
Duration                                 : 23mn 10s
Bit rate mode                            : Variable
Bit rate                                 : 128 Kbps
Channel count                            : 2 channels
Sampling rate                            : 48.0 KHz
Compression mode                         : Lossy
Stream size                              : 21.2 MiB (9%)
Writing library                          : aoTuV Beta 5 (UTC 2006-10-24)
Language                                 : English
Default                                  : No
Forced                                   : No

Text #1
ID                                       : 4
Format                                   : ASS
Codec ID                                 : S_TEXT/ASS
Codec ID/Info                            : Advanced Sub Station Alpha
Compression mode                         : Lossless
Title                                    : Styled Subtitles
Language                                 : English
Default                                  : Yes
Forced                                   : No

Text #2
ID                                       : 5
Format                                   : ASS
Codec ID                                 : S_TEXT/ASS
Codec ID/Info                            : Advanced Sub Station Alpha
Compression mode                         : Lossless
Title                                    : Karaoke Only
Language                                 : English
Default                                  : No
Forced                                   : No

Menu
00:00:00.000                             : en:Opening Credits
00:01:05.816                             : en:Hunter x Hunter 02 - Part 1
00:11:24.392                             : en:Hunter x Hunter 02 - Part 2
00:21:33.959                             : en:Hunter x Hunter 03 - Preview
00:21:49.975                             : en:Ending Credits

Other Files in this Torrent
[S-A]_Hunter_x_Hunter_-_02_[x264-vorbis][F5ABBDA0].mkv
beta
Anime DDL+NZB mirror
Current Time: 12/06/2024 19:21



About/FAQs

Discord