File Size230.2 MB (241,421,490 bytes)
DownloadAnonFiles | EmbedUpload | Jheberg | MirrorStack | MultiUpload | Sendspace
ShareBeast: Part1, Part2
HashesCRC32: 603A2DAC, MD5: 0A8ABAF7C58CB5014E21699C9B3FB89E, SHA1: 7B1757DF78F75D8CFE2E884E47D77357D98FCBEF, SHA256: 624F1BDB367E868ABCB12A609BF3738BDC7B702B12CC797E8891A8ED755AFC22, ED2K: 555C1663789A72AFC1B9344112DD5DFC
Screenshots
screenshotscreenshotscreenshotscreenshotscreenshot
SubtitlesAll Attachments | #4: Styled Subtitles - Full [eng, ASS], #5: Styled Subtitles - Kara Only [eng, ASS]
Additional Info
General
Unique ID                                : 203123342783534242561778517460702317655 (0x98D02200F4AE77DFAF0FE6A6ABFDCC57)
Complete name                            : [S-A]_Hunter_x_Hunter_-_49_[x264-vorbis][603A2DAC].mkv
Format                                   : Matroska
Format version                           : Version 2
File size                                : 230 MiB
Duration                                 : 23mn 8s
Overall bit rate mode                    : Variable
Overall bit rate                         : 1 391 Kbps
Movie name                               : [S-A] Hunter x Hunter - 49
Encoded date                             : UTC 2011-03-26 02:41:44
Writing application                      : mkvmerge v3.4.0 ('Rapunzel') built on May 15 2010 09:38:20
Writing library                          : libebml v0.8.0 + libmatroska v0.9.0
Attachment                               : Yes / Yes / Yes / Yes

Video
ID                                       : 1
Format                                   : AVC
Format/Info                              : Advanced Video Codec
Format profile                           : High@L3.1
Format settings, CABAC                   : Yes
Format settings, ReFrames                : 8 frames
Codec ID                                 : V_MPEG4/ISO/AVC
Duration                                 : 23mn 8s
Bit rate                                 : 1 160 Kbps
Width                                    : 640 pixels
Height                                   : 480 pixels
Display aspect ratio                     : 4:3
Frame rate mode                          : Constant
Frame rate                               : 23.976 fps
Color space                              : YUV
Chroma subsampling                       : 4:2:0
Bit depth                                : 8 bits
Scan type                                : Progressive
Bits/(Pixel*Frame)                       : 0.157
Stream size                              : 183 MiB (80%)
Title                                    : #Shindou-Anime@irc.rizon.net | http://shindou.magykal.net
Writing library                          : x264 core 102 r1666 d058f37
Encoding settings                        : cabac=1 / ref=8 / deblock=0:1:1 / analyse=0x3:0x133 / me=umh / subme=9 / psy=1 / psy_rd=0.40:0.00 / mixed_ref=1 / me_range=24 / chroma_me=1 / trellis=1 / 8x8dct=1 / cqm=0 / deadzone=21,11 / fast_pskip=0 / chroma_qp_offset=-2 / threads=3 / sliced_threads=0 / nr=0 / decimate=1 / interlaced=0 / constrained_intra=0 / bframes=8 / b_pyramid=2 / b_adapt=2 / b_bias=0 / direct=3 / weightb=1 / open_gop=0 / weightp=2 / keyint=240 / keyint_min=24 / scenecut=40 / intra_refresh=0 / rc_lookahead=60 / rc=2pass / mbtree=1 / bitrate=1160 / ratetol=1.0 / qcomp=0.60 / qpmin=10 / qpmax=51 / qpstep=4 / cplxblur=20.0 / qblur=0.5 / ip_ratio=1.40 / aq=1:0.60
Language                                 : English
Default                                  : No
Forced                                   : No

Audio #1
ID                                       : 2
Format                                   : Vorbis
Format settings, Floor                   : 1
Codec ID                                 : A_VORBIS
Duration                                 : 23mn 8s
Bit rate mode                            : Variable
Bit rate                                 : 128 Kbps
Channel count                            : 2 channels
Sampling rate                            : 48.0 KHz
Compression mode                         : Lossy
Stream size                              : 21.2 MiB (9%)
Title                                    : Japanese Vorbis 2.0
Writing library                          : aoTuV b5a  (UTC 2008-03-30)
Language                                 : Japanese
Default                                  : Yes
Forced                                   : No

Audio #2
ID                                       : 3
Format                                   : Vorbis
Format settings, Floor                   : 1
Codec ID                                 : A_VORBIS
Duration                                 : 23mn 8s
Bit rate mode                            : Variable
Bit rate                                 : 128 Kbps
Channel count                            : 2 channels
Sampling rate                            : 48.0 KHz
Compression mode                         : Lossy
Stream size                              : 21.2 MiB (9%)
Title                                    : English Vorbis 2.0
Writing library                          : aoTuV b5a  (UTC 2008-03-30)
Language                                 : English
Default                                  : No
Forced                                   : No

Text #1
ID                                       : 4
Format                                   : ASS
Codec ID                                 : S_TEXT/ASS
Codec ID/Info                            : Advanced Sub Station Alpha
Compression mode                         : Lossless
Title                                    : Styled Subtitles - Full
Language                                 : English
Default                                  : Yes
Forced                                   : No

Text #2
ID                                       : 5
Format                                   : ASS
Codec ID                                 : S_TEXT/ASS
Codec ID/Info                            : Advanced Sub Station Alpha
Compression mode                         : Lossless
Title                                    : Styled Subtitles - Kara Only
Language                                 : English
Default                                  : No
Forced                                   : No

Menu
00:00:00.000                             : en:Opening
00:01:05.732                             : en:Part A
00:10:38.705                             : en:Eyecatch
00:10:43.393                             : en:Part B
00:21:31.958                             : en:Preview
00:21:47.307                             : en:Ending

Other Files in this Torrent
[S-A]_Hunter_x_Hunter_-_49_[x264-vorbis][603A2DAC].mkv
beta
Anime DDL+NZB mirror
Current Time: 12/06/2024 17:40



About/FAQs

Discord