File Size231.4 MB (242,595,740 bytes)
DownloadAnonFiles | EmbedUpload | Jheberg | MirrorStack | MultiUpload | Sendspace
ShareBeast: Part1, Part2
HashesCRC32: AFDC5B1A, MD5: F129474DD04B257C50AAB83B6EB92231, SHA1: 6CA6D3AC1F25416F247E798D985131D87E40858C, SHA256: 48AEB06FBCF83E3C34B95D960022EC8C2557447A0D53A706238EC53FDC7120FF, ED2K: 233961F265A18C7EC969A535F3FF25CB
Screenshots
screenshotscreenshotscreenshotscreenshotscreenshot
SubtitlesAll Attachments | #4: Styled Subtitles - Full Subs [eng, ASS], #5: Styled Subtitles - Kara Only [eng, ASS]
Additional Info
General
Unique ID                                : 200298056329469602780491455714069630612 (0x96B000A07B2F820EAE4FD60DE1E4CE94)
Complete name                            : [S-A]_Hunter_x_Hunter_-_12_[x264-vorbis][AFDC5B1A].mkv
Format                                   : Matroska
Format version                           : Version 1
File size                                : 231 MiB
Duration                                 : 23mn 9s
Overall bit rate mode                    : Variable
Overall bit rate                         : 1 397 Kbps
Encoded date                             : UTC 2009-05-26 02:37:29
Writing application                      : mkvmerge v2.4.1 ('Use Me') built on Dec  5 2008 18:30:05
Writing library                          : libebml v0.7.7 + libmatroska v0.8.1
Attachment                               : Yes / Yes / Yes / Yes / Yes / Yes / Yes / Yes

Video
ID                                       : 1
Format                                   : AVC
Format/Info                              : Advanced Video Codec
Format profile                           : High@L3.2
Format settings, CABAC                   : Yes
Format settings, ReFrames                : 16 frames
Codec ID                                 : V_MPEG4/ISO/AVC
Duration                                 : 23mn 9s
Bit rate                                 : 1 157 Kbps
Width                                    : 640 pixels
Height                                   : 480 pixels
Display aspect ratio                     : 4:3
Frame rate mode                          : Constant
Frame rate                               : 23.976 fps
Color space                              : YUV
Chroma subsampling                       : 4:2:0
Bit depth                                : 8 bits
Scan type                                : Progressive
Bits/(Pixel*Frame)                       : 0.157
Stream size                              : 184 MiB (80%)
Writing library                          : x264 core 67 r1143 7554705
Encoding settings                        : cabac=1 / ref=16 / deblock=1:-1:-1 / analyse=0x3:0x133 / me=umh / subme=9 / psy_rd=1.0:0.0 / mixed_ref=1 / me_range=16 / chroma_me=1 / trellis=0 / 8x8dct=1 / cqm=0 / deadzone=21,11 / chroma_qp_offset=-2 / threads=3 / nr=0 / decimate=1 / mbaff=0 / bframes=16 / b_pyramid=1 / b_adapt=1 / b_bias=0 / direct=3 / wpredb=1 / keyint=250 / keyint_min=25 / scenecut=40 / rc=2pass / bitrate=1157 / ratetol=1.0 / qcomp=0.60 / qpmin=10 / qpmax=51 / qpstep=4 / cplxblur=20.0 / qblur=0.5 / ip_ratio=1.40 / pb_ratio=1.30 / aq=1:1.00
Default                                  : Yes
Forced                                   : No

Audio #1
ID                                       : 2
Format                                   : Vorbis
Format settings, Floor                   : 1
Codec ID                                 : A_VORBIS
Duration                                 : 23mn 9s
Bit rate mode                            : Variable
Bit rate                                 : 128 Kbps
Channel count                            : 2 channels
Sampling rate                            : 48.0 KHz
Compression mode                         : Lossy
Stream size                              : 21.2 MiB (9%)
Title                                    : Japanese Vorbis 2.0
Writing library                          : aoTuV b5a  (UTC 2008-03-30)
Language                                 : Japanese
Default                                  : Yes
Forced                                   : No

Audio #2
ID                                       : 3
Format                                   : Vorbis
Format settings, Floor                   : 1
Codec ID                                 : A_VORBIS
Duration                                 : 23mn 9s
Bit rate mode                            : Variable
Bit rate                                 : 128 Kbps
Channel count                            : 2 channels
Sampling rate                            : 48.0 KHz
Compression mode                         : Lossy
Stream size                              : 21.2 MiB (9%)
Title                                    : English Vorbis 2.0
Writing library                          : aoTuV b5a  (UTC 2008-03-30)
Language                                 : English
Default                                  : No
Forced                                   : No

Text #1
ID                                       : 4
Format                                   : ASS
Codec ID                                 : S_TEXT/ASS
Codec ID/Info                            : Advanced Sub Station Alpha
Compression mode                         : Lossless
Title                                    : Styled Subtitles - Full Subs
Language                                 : English
Default                                  : Yes
Forced                                   : No

Text #2
ID                                       : 5
Format                                   : ASS
Codec ID                                 : S_TEXT/ASS
Codec ID/Info                            : Advanced Sub Station Alpha
Compression mode                         : Lossless
Title                                    : Styled Subtitles - Kara Only
Language                                 : English
Default                                  : No
Forced                                   : No

Menu
00:00:00.000                             : en:Opening
00:01:06.608                             : en:Part A
00:11:10.336                             : en:Part B
00:21:32.958                             : en:Preview
00:21:48.974                             : en:Ending

Other Files in this Torrent
[S-A]_Hunter_x_Hunter_-_12_[x264-vorbis][AFDC5B1A].mkv
beta
Anime DDL+NZB mirror
Current Time: 12/06/2024 19:08



About/FAQs

Discord