File Size231.0 MB (242,184,890 bytes)
DownloadAnonFiles | EmbedUpload | Jheberg | MirrorStack | MultiUpload | Sendspace
ShareBeast: Part1, Part2
HashesCRC32: 939BBDFE, MD5: 1495603DE432AD0AD5AA74DF5229DBF9, SHA1: 5FA913700BD5B39005F2E953F208EE1A59FC7642, SHA256: C9C7CF6183ABFE569DD07F90CBA0CA345ACED2E74448FD0C6E8807FA302730F2, ED2K: 5C6D1D19FC0DCE509CC8AB82BC23011D
Screenshots
screenshotscreenshotscreenshotscreenshotscreenshot
SubtitlesAll Attachments | #4: Styled Subtitles - Full [ASS], #5: Styled Subtitles - Kara Only [ASS]
Additional Info
General
Unique ID                                : 244609430845819631967159296050004670077 (0xB8061010AE9C8BACBC6915043CC2B67D)
Complete name                            : [S-A]_Hunter_x_Hunter_-_25_[x264-vorbis][939BBDFE].mkv
Format                                   : Matroska
Format version                           : Version 2
File size                                : 231 MiB
Duration                                 : 23mn 9s
Overall bit rate mode                    : Variable
Overall bit rate                         : 1 394 Kbps
Movie name                               : [Shindou-Anime] Hunter x Hunter 25
Encoded date                             : UTC 2010-07-03 17:06:15
Writing application                      : mkvmerge v4.0.0 ('The Stars were mine') built on Jun  6 2010 16:18:42
Writing library                          : libebml v1.0.0 + libmatroska v1.0.0
Attachment                               : Yes / Yes / Yes / Yes

Video
ID                                       : 1
Format                                   : AVC
Format/Info                              : Advanced Video Codec
Format profile                           : High@L3.0
Format settings, CABAC                   : Yes
Format settings, ReFrames                : 4 frames
Codec ID                                 : V_MPEG4/ISO/AVC
Duration                                 : 23mn 9s
Bit rate                                 : 1 161 Kbps
Width                                    : 640 pixels
Height                                   : 480 pixels
Display aspect ratio                     : 4:3
Frame rate mode                          : Constant
Frame rate                               : 23.976 fps
Color space                              : YUV
Chroma subsampling                       : 4:2:0
Bit depth                                : 8 bits
Scan type                                : Progressive
Bits/(Pixel*Frame)                       : 0.158
Stream size                              : 184 MiB (80%)
Title                                    : #Shindou-Anime@irc.rizon.net
Writing library                          : x264 core 88 r1471 1144615
Encoding settings                        : cabac=1 / ref=5 / deblock=1:-1:-1 / analyse=0x3:0x133 / me=umh / subme=7 / psy=1 / psy_rd=1.00:0.00 / mixed_ref=1 / me_range=16 / chroma_me=1 / trellis=1 / 8x8dct=1 / cqm=0 / deadzone=21,11 / fast_pskip=0 / chroma_qp_offset=-2 / threads=3 / sliced_threads=0 / nr=0 / decimate=1 / mbaff=0 / constrained_intra=0 / bframes=3 / b_pyramid=1 / b_adapt=2 / b_bias=0 / direct=3 / wpredb=1 / wpredp=2 / keyint=250 / keyint_min=25 / scenecut=40 / intra_refresh=0 / rc_lookahead=40 / rc=2pass / mbtree=1 / bitrate=1161 / ratetol=1.0 / qcomp=0.60 / qpmin=10 / qpmax=51 / qpstep=4 / cplxblur=20.0 / qblur=0.5 / ip_ratio=1.40 / aq=1:1.00
Language                                 : English
Default                                  : Yes
Forced                                   : No

Audio #1
ID                                       : 2
Format                                   : Vorbis
Format settings, Floor                   : 1
Codec ID                                 : A_VORBIS
Duration                                 : 23mn 9s
Bit rate mode                            : Variable
Bit rate                                 : 128 Kbps
Channel count                            : 2 channels
Sampling rate                            : 48.0 KHz
Compression mode                         : Lossy
Stream size                              : 21.2 MiB (9%)
Title                                    : Japanese Vorbis 2.0
Writing library                          : aoTuV b5a  (UTC 2008-03-30)
Language                                 : Japanese
Default                                  : Yes
Forced                                   : No

Audio #2
ID                                       : 3
Format                                   : Vorbis
Format settings, Floor                   : 1
Codec ID                                 : A_VORBIS
Duration                                 : 23mn 9s
Bit rate mode                            : Variable
Bit rate                                 : 128 Kbps
Channel count                            : 2 channels
Sampling rate                            : 48.0 KHz
Compression mode                         : Lossy
Stream size                              : 21.2 MiB (9%)
Title                                    : English Vorbis 2.0
Writing library                          : aoTuV b5a  (UTC 2008-03-30)
Language                                 : English
Default                                  : No
Forced                                   : No

Text #1
ID                                       : 4
Format                                   : ASS
Codec ID                                 : S_TEXT/ASS
Codec ID/Info                            : Advanced Sub Station Alpha
Compression mode                         : Lossless
Title                                    : Styled Subtitles - Full
Language                                 : English
Default                                  : Yes
Forced                                   : No

Text #2
ID                                       : 5
Format                                   : ASS
Codec ID                                 : S_TEXT/ASS
Codec ID/Info                            : Advanced Sub Station Alpha
Compression mode                         : Lossless
Title                                    : Styled Subtitles - Kara Only
Language                                 : English
Default                                  : No
Forced                                   : No

Menu
00:00:00.000                             : en:Opening
00:01:06.073                             : en:Part 1
00:11:09.037                             : en:Eyecatch
00:11:13.088                             : en:Part 2
00:21:33.095                             : en:Preview
00:21:49.001                             : en:Ending

Other Files in this Torrent
[S-A]_Hunter_x_Hunter_-_25_[x264-vorbis][939BBDFE].mkv
beta
Anime DDL+NZB mirror
Current Time: 12/06/2024 18:39



About/FAQs

Discord