File Size230.6 MB (241,844,388 bytes)
DownloadAnonFiles | EmbedUpload | Jheberg | MirrorStack | MultiUpload | Sendspace
ShareBeast: Part1, Part2
HashesCRC32: 05BB6328, MD5: 08482EEF3B49B8E2FEE5D4EDF42AF9B0, SHA1: A0B7344D8A55CA838A254FD98C4BF1D14EF20B3F, SHA256: 1BFBA3E73FBC8956CFA342967C6908E24181AB4F2C012D70097CB3FB53820E92, ED2K: C509423A00542B9E9A22AA3F9FB03BCA
Screenshots
screenshotscreenshotscreenshotscreenshotscreenshot
SubtitlesAll Attachments | #4: Styled Subtitles - Full [eng, ASS], #5: Styled Subtitles - Kara Only [eng, ASS]
Additional Info
General
Unique ID                                : 239094166832446024880216538331652225696 (0xB3DFDC8E168E7ED784B2A0056722FAA0)
Complete name                            : [S-A]_Hunter_x_Hunter_-_47_[x264-vorbis][05BB6328].mkv
Format                                   : Matroska
Format version                           : Version 2
File size                                : 231 MiB
Duration                                 : 23mn 8s
Overall bit rate mode                    : Variable
Overall bit rate                         : 1 394 Kbps
Movie name                               : [Shindou-Anime] Hunter x Hunter - 47
Encoded date                             : UTC 2011-03-19 23:01:26
Writing application                      : mkvmerge v3.4.0 ('Rapunzel') built on May 15 2010 09:38:20
Writing library                          : libebml v0.8.0 + libmatroska v0.9.0
Attachment                               : Yes / Yes / Yes / Yes

Video
ID                                       : 1
Format                                   : AVC
Format/Info                              : Advanced Video Codec
Format profile                           : High@L3.1
Format settings, CABAC                   : Yes
Format settings, ReFrames                : 8 frames
Codec ID                                 : V_MPEG4/ISO/AVC
Duration                                 : 23mn 8s
Bit rate                                 : 1 160 Kbps
Width                                    : 640 pixels
Height                                   : 480 pixels
Display aspect ratio                     : 4:3
Frame rate mode                          : Constant
Frame rate                               : 23.976 fps
Color space                              : YUV
Chroma subsampling                       : 4:2:0
Bit depth                                : 8 bits
Scan type                                : Progressive
Bits/(Pixel*Frame)                       : 0.157
Stream size                              : 184 MiB (80%)
Title                                    : #Shindou-Anime@irc.rizon.net | http://shindou.magykal.net
Writing library                          : x264 core 102 r1666 d058f37
Encoding settings                        : cabac=1 / ref=8 / deblock=0:1:1 / analyse=0x3:0x133 / me=umh / subme=9 / psy=1 / psy_rd=0.40:0.00 / mixed_ref=1 / me_range=24 / chroma_me=1 / trellis=1 / 8x8dct=1 / cqm=0 / deadzone=21,11 / fast_pskip=0 / chroma_qp_offset=-2 / threads=3 / sliced_threads=0 / nr=0 / decimate=1 / interlaced=0 / constrained_intra=0 / bframes=8 / b_pyramid=2 / b_adapt=2 / b_bias=0 / direct=3 / weightb=1 / open_gop=0 / weightp=2 / keyint=240 / keyint_min=24 / scenecut=40 / intra_refresh=0 / rc_lookahead=60 / rc=2pass / mbtree=1 / bitrate=1160 / ratetol=1.0 / qcomp=0.60 / qpmin=10 / qpmax=51 / qpstep=4 / cplxblur=20.0 / qblur=0.5 / ip_ratio=1.40 / aq=1:0.60
Language                                 : English
Default                                  : No
Forced                                   : No

Audio #1
ID                                       : 2
Format                                   : Vorbis
Format settings, Floor                   : 1
Codec ID                                 : A_VORBIS
Duration                                 : 23mn 8s
Bit rate mode                            : Variable
Bit rate                                 : 128 Kbps
Channel count                            : 2 channels
Sampling rate                            : 48.0 KHz
Compression mode                         : Lossy
Stream size                              : 21.2 MiB (9%)
Title                                    : Japanese Vorbis 2.0
Writing library                          : aoTuV b5a  (UTC 2008-03-30)
Language                                 : Japanese
Default                                  : Yes
Forced                                   : No

Audio #2
ID                                       : 3
Format                                   : Vorbis
Format settings, Floor                   : 1
Codec ID                                 : A_VORBIS
Duration                                 : 23mn 8s
Bit rate mode                            : Variable
Bit rate                                 : 128 Kbps
Channel count                            : 2 channels
Sampling rate                            : 48.0 KHz
Compression mode                         : Lossy
Stream size                              : 21.2 MiB (9%)
Title                                    : English Vorbis 2.0
Writing library                          : aoTuV b5a  (UTC 2008-03-30)
Language                                 : English
Default                                  : No
Forced                                   : No

Text #1
ID                                       : 4
Format                                   : ASS
Codec ID                                 : S_TEXT/ASS
Codec ID/Info                            : Advanced Sub Station Alpha
Compression mode                         : Lossless
Title                                    : Styled Subtitles - Full
Language                                 : English
Default                                  : Yes
Forced                                   : No

Text #2
ID                                       : 5
Format                                   : ASS
Codec ID                                 : S_TEXT/ASS
Codec ID/Info                            : Advanced Sub Station Alpha
Compression mode                         : Lossless
Title                                    : Styled Subtitles - Kara Only
Language                                 : English
Default                                  : No
Forced                                   : No

Menu
00:00:00.000                             : en:Opening
00:01:06.732                             : en:Part A
00:12:15.401                             : en:Eyecatch
00:12:19.530                             : en:Part B
00:21:31.957                             : en:Preview
00:21:47.306                             : en:Ending

Other Files in this Torrent
[S-A]_Hunter_x_Hunter_-_47_[x264-vorbis][05BB6328].mkv
beta
Anime DDL+NZB mirror
Current Time: 12/06/2024 17:55



About/FAQs

Discord