File Size340.1 MB (356,632,900 bytes)
DownloadAnonFiles | ClickNUpload | DropAPK | Free | MultiUp
  • BdUpload
  • DownAce
  • Fichier
  • FileCloud
  • Filerio
  • FilesCdn
  • IndiShare
  • Kbagi
  • Turbobit
  • UpToBox
  • Uppit
| SolidFiles | ZippyShare
HashesCRC32: E15A907A, MD5: 3537DDCA96DA8F0DCE399391242FC1D3, SHA1: C7079ACFAB3C4A68A8F8FDE82578A4657AC187BB, SHA256: CD68A77734EDB5DF50E9E03E2569B98A15C6B9307194D3C7297753200AD98CDE, ED2K: 05CDA83074B5348DE5B4E6F1F996F04D
Screenshots
screenshotscreenshotscreenshotscreenshotscreenshot
SubtitlesAll Attachments | eng [ASS], Honorifics [enm, ASS]
Additional Info
General
Unique ID                                : 127347120941367035367716475828477287246 (0x5FCE29D1A6487B8D7FF31A694DC6DB4E)
Complete name                            : Made in Abyss - 13 [1920x1080].mkv
Format                                   : Matroska
Format version                           : Version 4
File size                                : 340 MiB
Duration                                 : 47 min 22 s
Overall bit rate                         : 1 004 kb/s
Writing application                      : Lavf58.45.100
Writing library                          : Lavf58.45.100
ErrorDetectionType                       : Per level 1
Attachments                              : CRONOSPRO-SEMIBOLD.TTF / CRONOSPRO-SEMIBOLDIT.TTF / DFGYOSHO-LT-WING-RKSJ-H.TTF / DRIPDROP.TTF / PLAYTIMEWITHHOTTODDIES.TTF / SARUSRB.TTF

Video
ID                                       : 1
Format                                   : AV1
Format/Info                              : AOMedia Video 1
Codec ID                                 : V_AV1
Duration                                 : 47 min 22 s
Width                                    : 1 920 pixels
Height                                   : 1 080 pixels
Display aspect ratio                     : 16:9
Frame rate mode                          : Constant
Frame rate                               : 23.976 (24000/1001) FPS
Default                                  : Yes
Forced                                   : No
Color range                              : Limited

Audio
ID                                       : 2
Format                                   : Opus
Codec ID                                 : A_OPUS
Duration                                 : 47 min 22 s
Channel(s)                               : 2 channels
Channel layout                           : L R
Sampling rate                            : 48.0 kHz
Bit depth                                : 32 bits
Compression mode                         : Lossy
Delay relative to video                  : -7 ms
Writing library                          : Lavc58.91.100 libopus
Default                                  : Yes
Forced                                   : No

Text #1
ID                                       : 3
Format                                   : ASS
Codec ID                                 : S_TEXT/ASS
Codec ID/Info                            : Advanced Sub Station Alpha
Duration                                 : 47 min 16 s
Bit rate                                 : 257 b/s
Count of elements                        : 591
Compression mode                         : Lossless
Stream size                              : 88.9 KiB (0%)
Language                                 : English
Default                                  : Yes
Forced                                   : No

Text #2
ID                                       : 4
Format                                   : ASS
Codec ID                                 : S_TEXT/ASS
Codec ID/Info                            : Advanced Sub Station Alpha
Duration                                 : 47 min 16 s
Bit rate                                 : 257 b/s
Count of elements                        : 591
Compression mode                         : Lossless
Stream size                              : 88.9 KiB (0%)
Title                                    : Honorifics
Language                                 : enm
Default                                  : No
Forced                                   : No

Menu
00:00:00.833                             : :Intro
00:01:20.770                             : :OP
00:02:50.820                             : :Part A
00:12:18.800                             : :Part B
00:20:53.780                             : :Part C
00:38:55.770                             : :Part D

Other Files in this Torrent
Made in Abyss - 13 [1920x1080].mkv
beta
Anime DDL+NZB mirror
Current Time: 14/06/2024 09:17



About/FAQs

Discord