File Size179.0 MB (187,704,178 bytes)
DownloadAnonFiles | ClickNUpload | DropAPK | Free | MultiUp
  • BdUpload
  • DownAce
  • Fichier
  • FileCloud
  • Filerio
  • FilesCdn
  • IndiShare
  • Kbagi
  • Turbobit
  • UpToBox
  • Uppit
| SolidFiles | ZippyShare
HashesCRC32: E39EDDB8, MD5: 0A321EA9EEABFC1A11BCAA5EB9676B98, SHA1: 60C51EC545D803C21C7A13794851F6103CB84AD8, SHA256: DE76A3514C9BA61C59A5454AEF2589BACD9DC632E92607AFAC66B095E0BFDE5B, ED2K: 24636F2ADD1152394B87B11101D4D845
Screenshots
screenshotscreenshotscreenshotscreenshotscreenshot
SubtitlesAll Attachments | eng [ASS], Honorifics [enm, ASS]
Additional Info
General
Unique ID                                : 253130924235032682032968545532476947332 (0xBE6F3E2080F05F4A95073B9FD6D47B84)
Complete name                            : Made in Abyss - 08 [1920x1080].mkv
Format                                   : Matroska
Format version                           : Version 4
File size                                : 179 MiB
Duration                                 : 23 min 42 s
Overall bit rate                         : 1 056 kb/s
Writing application                      : Lavf58.45.100
Writing library                          : Lavf58.45.100
ErrorDetectionType                       : Per level 1
Attachments                              : CRONOSPRO-SEMIBOLD.TTF / CRONOSPRO-SEMIBOLDIT.TTF / DRIPDROP.TTF / KGSHADOWOFTHEDAY.TTF / PLAYTIMEWITHHOTTODDIES.TTF / SARUSRB.TTF

Video
ID                                       : 1
Format                                   : AV1
Format/Info                              : AOMedia Video 1
Codec ID                                 : V_AV1
Duration                                 : 23 min 42 s
Width                                    : 1 920 pixels
Height                                   : 1 080 pixels
Display aspect ratio                     : 16:9
Frame rate mode                          : Constant
Frame rate                               : 23.976 (24000/1001) FPS
Default                                  : Yes
Forced                                   : No
Color range                              : Limited

Audio
ID                                       : 2
Format                                   : Opus
Codec ID                                 : A_OPUS
Duration                                 : 23 min 42 s
Channel(s)                               : 2 channels
Channel layout                           : L R
Sampling rate                            : 48.0 kHz
Bit depth                                : 32 bits
Compression mode                         : Lossy
Delay relative to video                  : -7 ms
Writing library                          : Lavc58.91.100 libopus
Default                                  : Yes
Forced                                   : No

Text #1
ID                                       : 3
Format                                   : ASS
Codec ID                                 : S_TEXT/ASS
Codec ID/Info                            : Advanced Sub Station Alpha
Duration                                 : 23 min 40 s
Bit rate                                 : 456 b/s
Count of elements                        : 358
Compression mode                         : Lossless
Stream size                              : 78.8 KiB (0%)
Language                                 : English
Default                                  : Yes
Forced                                   : No

Text #2
ID                                       : 4
Format                                   : ASS
Codec ID                                 : S_TEXT/ASS
Codec ID/Info                            : Advanced Sub Station Alpha
Duration                                 : 23 min 40 s
Bit rate                                 : 456 b/s
Count of elements                        : 358
Compression mode                         : Lossless
Stream size                              : 78.8 KiB (0%)
Title                                    : Honorifics
Language                                 : enm
Default                                  : No
Forced                                   : No

Menu
00:00:00.800                             : :Intro
00:01:48.241                             : :OP
00:03:17.788                             : :Part A
00:09:41.839                             : :Part B
00:22:00.785                             : :ED
00:23:30.792                             : :Preview

Other Files in this Torrent
Made in Abyss - 08 [1920x1080].mkv
beta
Anime DDL+NZB mirror
Current Time: 14/06/2024 09:36



About/FAQs

Discord