File Size225.7 MB (236,668,122 bytes)
DownloadAnonFiles | ClickNUpload | DropAPK | Free | MultiUp
  • BdUpload
  • DownAce
  • Fichier
  • FileCloud
  • Filerio
  • FilesCdn
  • IndiShare
  • Kbagi
  • Turbobit
  • UpToBox
  • Uppit
| SolidFiles | ZippyShare
HashesCRC32: E49FCDB4, MD5: 2D2C19D2E28DEFBB5911FE98AA28503E, SHA1: BEC370D3978900E13452B36A0E47973594D3D896, SHA256: 681EEBC418018E216BC7C15BBEDAA6B470A55AE9C7D5351DB00B17FA898D1A10, ED2K: A677B33457C017C209D60B22CDF3D11D
Screenshots
screenshotscreenshotscreenshotscreenshotscreenshot
SubtitlesAll Attachments | eng [ASS], Honorifics [enm, ASS]
Additional Info
General
Unique ID                                : 88024566745589693231251995939592807694 (0x4238EA36794BC091EF6F740C97A1250E)
Complete name                            : Made in Abyss - 09 [1920x1080].mkv
Format                                   : Matroska
Format version                           : Version 4
File size                                : 226 MiB
Duration                                 : 23 min 42 s
Overall bit rate                         : 1 331 kb/s
Writing application                      : Lavf58.45.100
Writing library                          : Lavf58.45.100
ErrorDetectionType                       : Per level 1
Attachments                              : CRONOSPRO-SEMIBOLD.TTF / CRONOSPRO-SEMIBOLDIT.TTF / DFGYOSHO-LT-WING-RKSJ-H.TTF / DRIPDROP.TTF / KGSHADOWOFTHEDAY.TTF / PLAYTIMEWITHHOTTODDIES.TTF / SARUSRB.TTF

Video
ID                                       : 1
Format                                   : AV1
Format/Info                              : AOMedia Video 1
Codec ID                                 : V_AV1
Duration                                 : 23 min 42 s
Width                                    : 1 920 pixels
Height                                   : 1 080 pixels
Display aspect ratio                     : 16:9
Frame rate mode                          : Constant
Frame rate                               : 23.976 (24000/1001) FPS
Default                                  : Yes
Forced                                   : No
Color range                              : Limited

Audio
ID                                       : 2
Format                                   : Opus
Codec ID                                 : A_OPUS
Duration                                 : 23 min 42 s
Channel(s)                               : 2 channels
Channel layout                           : L R
Sampling rate                            : 48.0 kHz
Bit depth                                : 32 bits
Compression mode                         : Lossy
Delay relative to video                  : -7 ms
Writing library                          : Lavc58.91.100 libopus
Default                                  : Yes
Forced                                   : No

Text #1
ID                                       : 3
Format                                   : ASS
Codec ID                                 : S_TEXT/ASS
Codec ID/Info                            : Advanced Sub Station Alpha
Duration                                 : 23 min 40 s
Bit rate                                 : 427 b/s
Count of elements                        : 338
Compression mode                         : Lossless
Stream size                              : 74.0 KiB (0%)
Language                                 : English
Default                                  : Yes
Forced                                   : No

Text #2
ID                                       : 4
Format                                   : ASS
Codec ID                                 : S_TEXT/ASS
Codec ID/Info                            : Advanced Sub Station Alpha
Duration                                 : 23 min 40 s
Bit rate                                 : 427 b/s
Count of elements                        : 338
Compression mode                         : Lossless
Stream size                              : 74.0 KiB (0%)
Title                                    : Honorifics
Language                                 : enm
Default                                  : No
Forced                                   : No

Menu
00:00:00.833                             : :Intro
00:01:57.930                             : :OP
00:03:27.770                             : :Part A
00:11:22.750                             : :Part B
00:22:00.720                             : :ED
00:23:30.730                             : :Preview

Other Files in this Torrent
Made in Abyss - 09 [1920x1080].mkv
beta
Anime DDL+NZB mirror
Current Time: 20/07/2024 22:13



About/FAQs

Discord