File Size217.3 MB (227,844,747 bytes)
DownloadAnonFiles | ClickNUpload | DropAPK | Free | MultiUp
  • BdUpload
  • DownAce
  • Fichier
  • FileCloud
  • Filerio
  • FilesCdn
  • IndiShare
  • Kbagi
  • Turbobit
  • UpToBox
  • Uppit
| SolidFiles | ZippyShare
HashesCRC32: CE4B4E86, MD5: CF1B3274C2C3A18F599225F56E7332C6, SHA1: BC1F619C4C5E7D84997992A671D9AC9C2BD3CF48, SHA256: C3F8F406ED8F87436791C0F96EBE412E08FE8D5CA66E3A56DF97656F01910226, ED2K: BB6ACDB121ED3F92136ED9842845DBFA
Screenshots
screenshotscreenshotscreenshotscreenshotscreenshot
SubtitlesAll Attachments | eng [ASS], Honorifics [enm, ASS]
Additional Info
General
Unique ID                                : 1178282906135323800181190194275010468 (0xE2EDD51E79C75C46B3D28401EBC7A4)
Complete name                            : Made in Abyss - 02 [1920x1080].mkv
Format                                   : Matroska
Format version                           : Version 4
File size                                : 217 MiB
Duration                                 : 23 min 42 s
Overall bit rate                         : 1 282 kb/s
Writing application                      : Lavf58.45.100
Writing library                          : Lavf58.45.100
ErrorDetectionType                       : Per level 1
Attachments                              : CronosPro-Semibold.ttf / CronosPro-SemiboldIt.ttf / DFGYOSHO-LT-WING-RKSJ-H.TTF / DRIPDROP.TTF / KGShadowOfTheDay.ttf / playtime.ttf / saru(sRB).TTF

Video
ID                                       : 1
Format                                   : AV1
Format/Info                              : AOMedia Video 1
Codec ID                                 : V_AV1
Duration                                 : 23 min 42 s
Width                                    : 1 920 pixels
Height                                   : 1 080 pixels
Display aspect ratio                     : 16:9
Frame rate mode                          : Constant
Frame rate                               : 23.976 (24000/1001) FPS
Default                                  : Yes
Forced                                   : No
Color range                              : Limited

Audio
ID                                       : 2
Format                                   : Opus
Codec ID                                 : A_OPUS
Duration                                 : 23 min 42 s
Channel(s)                               : 2 channels
Channel layout                           : L R
Sampling rate                            : 48.0 kHz
Bit depth                                : 32 bits
Compression mode                         : Lossy
Delay relative to video                  : -7 ms
Writing library                          : Lavc58.91.100 libopus
Default                                  : Yes
Forced                                   : No

Text #1
ID                                       : 3
Format                                   : ASS
Codec ID                                 : S_TEXT/ASS
Codec ID/Info                            : Advanced Sub Station Alpha
Duration                                 : 23 min 40 s
Bit rate                                 : 483 b/s
Count of elements                        : 426
Compression mode                         : Lossless
Stream size                              : 83.8 KiB (0%)
Language                                 : English
Default                                  : Yes
Forced                                   : No

Text #2
ID                                       : 4
Format                                   : ASS
Codec ID                                 : S_TEXT/ASS
Codec ID/Info                            : Advanced Sub Station Alpha
Duration                                 : 23 min 40 s
Bit rate                                 : 484 b/s
Count of elements                        : 426
Compression mode                         : Lossless
Stream size                              : 83.8 KiB (0%)
Title                                    : Honorifics
Language                                 : enm
Default                                  : No
Forced                                   : No

Menu
00:00:00.800                             : :Intro
00:00:35.835                             : :OP
00:02:05.800                             : :Part A
00:11:46.839                             : :Part B
00:22:00.785                             : :ED
00:23:30.792                             : :Preview

Other Files in this Torrent
Made in Abyss - 02 [1920x1080].mkv
beta
Anime DDL+NZB mirror
Current Time: 14/06/2024 10:19



About/FAQs

Discord