File Size169.2 MB (177,371,213 bytes)
DownloadAnonFiles | ClickNUpload | DropAPK | Free | MultiUp
  • BdUpload
  • DownAce
  • Fichier
  • FileCloud
  • Filerio
  • FilesCdn
  • IndiShare
  • Kbagi
  • Turbobit
  • UpToBox
  • Uppit
| SolidFiles | ZippyShare
HashesCRC32: 4517618B, MD5: 26DD80E081F4B9D7CB037B0462C6D791, SHA1: 3497D3F0E7C67678EBE12E47B06A4876D9497E55, SHA256: F54D8F2C87D8FFBE7CCBC56A77518B82421FDBF851744F1C6B3999FA21876C54, ED2K: C9BBF0BBB3DB5DEF74BB31ABBE922DC4
Screenshots
screenshotscreenshotscreenshotscreenshotscreenshot
SubtitlesAll Attachments | eng [ASS], Honorifics [enm, ASS]
Additional Info
General
Unique ID                                : 29431989758835629833233092106427623568 (0x16246521567817F349AD1DD32A14E890)
Complete name                            : Made in Abyss - 06 [1920x1080].mkv
Format                                   : Matroska
Format version                           : Version 4
File size                                : 169 MiB
Duration                                 : 23 min 42 s
Overall bit rate                         : 998 kb/s
Writing application                      : Lavf58.45.100
Writing library                          : Lavf58.45.100
ErrorDetectionType                       : Per level 1
Attachments                              : CronosPro-Semibold.ttf / CronosPro-SemiboldIt.ttf / DRIPDROP.TTF / KGShadowOfTheDay.ttf / playtime.ttf / saru(sRB).TTF

Video
ID                                       : 1
Format                                   : AV1
Format/Info                              : AOMedia Video 1
Codec ID                                 : V_AV1
Duration                                 : 23 min 42 s
Width                                    : 1 920 pixels
Height                                   : 1 080 pixels
Display aspect ratio                     : 16:9
Frame rate mode                          : Constant
Frame rate                               : 23.976 (24000/1001) FPS
Default                                  : Yes
Forced                                   : No
Color range                              : Limited

Audio
ID                                       : 2
Format                                   : Opus
Codec ID                                 : A_OPUS
Duration                                 : 23 min 42 s
Channel(s)                               : 2 channels
Channel layout                           : L R
Sampling rate                            : 48.0 kHz
Bit depth                                : 32 bits
Compression mode                         : Lossy
Delay relative to video                  : -7 ms
Writing library                          : Lavc58.91.100 libopus
Default                                  : Yes
Forced                                   : No

Text #1
ID                                       : 3
Format                                   : ASS
Codec ID                                 : S_TEXT/ASS
Codec ID/Info                            : Advanced Sub Station Alpha
Duration                                 : 23 min 40 s
Bit rate                                 : 437 b/s
Count of elements                        : 339
Compression mode                         : Lossless
Stream size                              : 75.7 KiB (0%)
Language                                 : English
Default                                  : Yes
Forced                                   : No

Text #2
ID                                       : 4
Format                                   : ASS
Codec ID                                 : S_TEXT/ASS
Codec ID/Info                            : Advanced Sub Station Alpha
Duration                                 : 23 min 40 s
Bit rate                                 : 437 b/s
Count of elements                        : 339
Compression mode                         : Lossless
Stream size                              : 75.7 KiB (0%)
Title                                    : Honorifics
Language                                 : enm
Default                                  : No
Forced                                   : No

Menu
00:00:00.800                             : :Intro
00:03:27.798                             : :OP
00:04:57.847                             : :Part A
00:16:45.887                             : :Part B
00:22:00.869                             : :ED
00:23:30.875                             : :Preview

Other Files in this Torrent
Made in Abyss - 06 [1920x1080].mkv
beta
Anime DDL+NZB mirror
Current Time: 14/06/2024 10:11



About/FAQs

Discord