File Size170.0 MB (178,232,971 bytes)
DownloadAnonFiles | ClickNUpload | DropAPK | Free | MultiUp
  • BdUpload
  • DownAce
  • Fichier
  • FileCloud
  • Filerio
  • FilesCdn
  • IndiShare
  • Kbagi
  • Turbobit
  • UpToBox
  • Uppit
| SolidFiles | ZippyShare
HashesCRC32: AC26F9AE, MD5: 20FF7C1B7BB016833465D5E7373D9471, SHA1: 4714982F599EDB2DFB116ED90BE433AF6F5AC27E, SHA256: D59A4BADE57BCE53583B29794A02991F3732F91DA7F51C685FFA7ABF58456C23, ED2K: F875AF88119ED4130B397E6D133BFD13
Screenshots
screenshotscreenshotscreenshotscreenshotscreenshot
SubtitlesAll Attachments | eng [ASS], Honorifics [enm, ASS]
Additional Info
General
Unique ID                                : 180719426963858115817245210086502642541 (0x87F54BABEE844D788E62F6314F59336D)
Complete name                            : Made in Abyss - 07 [1920x1080].mkv
Format                                   : Matroska
Format version                           : Version 4
File size                                : 170 MiB
Duration                                 : 23 min 42 s
Overall bit rate                         : 1 003 kb/s
Writing application                      : Lavf58.45.100
Writing library                          : Lavf58.45.100
ErrorDetectionType                       : Per level 1
Attachments                              : CronosPro-Semibold.ttf / CronosPro-SemiboldIt.ttf / DRIPDROP.TTF / KGShadowOfTheDay.ttf / playtime.ttf / saru(sRB).TTF

Video
ID                                       : 1
Format                                   : AV1
Format/Info                              : AOMedia Video 1
Codec ID                                 : V_AV1
Duration                                 : 23 min 42 s
Width                                    : 1 920 pixels
Height                                   : 1 080 pixels
Display aspect ratio                     : 16:9
Frame rate mode                          : Constant
Frame rate                               : 23.976 (24000/1001) FPS
Default                                  : Yes
Forced                                   : No
Color range                              : Limited

Audio
ID                                       : 2
Format                                   : Opus
Codec ID                                 : A_OPUS
Duration                                 : 23 min 42 s
Channel(s)                               : 2 channels
Channel layout                           : L R
Sampling rate                            : 48.0 kHz
Bit depth                                : 32 bits
Compression mode                         : Lossy
Delay relative to video                  : -7 ms
Writing library                          : Lavc58.91.100 libopus
Default                                  : Yes
Forced                                   : No

Text #1
ID                                       : 3
Format                                   : ASS
Codec ID                                 : S_TEXT/ASS
Codec ID/Info                            : Advanced Sub Station Alpha
Duration                                 : 23 min 40 s
Bit rate                                 : 458 b/s
Count of elements                        : 367
Compression mode                         : Lossless
Stream size                              : 79.4 KiB (0%)
Language                                 : English
Default                                  : Yes
Forced                                   : No

Text #2
ID                                       : 4
Format                                   : ASS
Codec ID                                 : S_TEXT/ASS
Codec ID/Info                            : Advanced Sub Station Alpha
Duration                                 : 23 min 40 s
Bit rate                                 : 458 b/s
Count of elements                        : 367
Compression mode                         : Lossless
Stream size                              : 79.5 KiB (0%)
Title                                    : Honorifics
Language                                 : enm
Default                                  : No
Forced                                   : No

Menu
00:00:00.800                             : :Intro
00:00:29.245                             : :OP
00:01:58.835                             : :Part A
00:11:57.850                             : :Part B
00:22:00.869                             : :ED
00:23:30.875                             : :Preview

Other Files in this Torrent
Made in Abyss - 07 [1920x1080].mkv
beta
Anime DDL+NZB mirror
Current Time: 14/06/2024 08:36



About/FAQs

Discord