File Size167.7 MB (175,868,921 bytes)
DownloadAnonFiles | ClickNUpload | DropAPK | Free | MultiUp
  • BdUpload
  • DownAce
  • Fichier
  • FileCloud
  • Filerio
  • FilesCdn
  • IndiShare
  • Kbagi
  • Turbobit
  • UpToBox
  • Uppit
| SolidFiles | ZippyShare
HashesCRC32: 31188348, MD5: AD88FC4C9020A29DFB2B3C0CC8115791, SHA1: 426688F4190EFAD8639EF3B6DA1F4C13F143D879, SHA256: 788BA936CADB654F04971133D8AC6F22E4F299DA020AABD824DFBB69988F8811, ED2K: 9FBD56AA997FF794DAA3E5B35F1B11B8
Screenshots
screenshotscreenshotscreenshotscreenshotscreenshot
SubtitlesAll Attachments | eng [ASS], Honorifics [enm, ASS]
Additional Info
General
Unique ID                                : 160458021602128528586858833862731552547 (0x78B71742BC879F95D8BFA456B218D723)
Complete name                            : Made in Abyss - 03 [1920x1080].mkv
Format                                   : Matroska
Format version                           : Version 4
File size                                : 168 MiB
Duration                                 : 23 min 42 s
Overall bit rate                         : 989 kb/s
Writing application                      : Lavf58.45.100
Writing library                          : Lavf58.45.100
ErrorDetectionType                       : Per level 1
Attachments                              : CronosPro-Semibold.ttf / CronosPro-SemiboldIt.ttf / DRIPDROP.TTF / playtime.ttf / saru(sRB).TTF

Video
ID                                       : 1
Format                                   : AV1
Format/Info                              : AOMedia Video 1
Codec ID                                 : V_AV1
Duration                                 : 23 min 42 s
Width                                    : 1 920 pixels
Height                                   : 1 080 pixels
Display aspect ratio                     : 16:9
Frame rate mode                          : Constant
Frame rate                               : 23.976 (24000/1001) FPS
Default                                  : Yes
Forced                                   : No
Color range                              : Limited

Audio
ID                                       : 2
Format                                   : Opus
Codec ID                                 : A_OPUS
Duration                                 : 23 min 42 s
Channel(s)                               : 2 channels
Channel layout                           : L R
Sampling rate                            : 48.0 kHz
Bit depth                                : 32 bits
Compression mode                         : Lossy
Delay relative to video                  : -7 ms
Writing library                          : Lavc58.91.100 libopus
Default                                  : Yes
Forced                                   : No

Text #1
ID                                       : 3
Format                                   : ASS
Codec ID                                 : S_TEXT/ASS
Codec ID/Info                            : Advanced Sub Station Alpha
Duration                                 : 23 min 40 s
Bit rate                                 : 475 b/s
Count of elements                        : 453
Compression mode                         : Lossless
Stream size                              : 82.3 KiB (0%)
Language                                 : English
Default                                  : Yes
Forced                                   : No

Text #2
ID                                       : 4
Format                                   : ASS
Codec ID                                 : S_TEXT/ASS
Codec ID/Info                            : Advanced Sub Station Alpha
Duration                                 : 23 min 40 s
Bit rate                                 : 475 b/s
Count of elements                        : 453
Compression mode                         : Lossless
Stream size                              : 82.3 KiB (0%)
Title                                    : Honorifics
Language                                 : enm
Default                                  : No
Forced                                   : No

Menu
00:00:00.800                             : :Intro
00:01:26.803                             : :OP
00:02:56.851                             : :Part A
00:13:28.857                             : :Part B
00:23:30.834                             : :Preview

Other Files in this Torrent
Made in Abyss - 03 [1920x1080].mkv
beta
Anime DDL+NZB mirror
Current Time: 14/06/2024 08:49



About/FAQs

Discord