File Size181.2 MB (189,984,067 bytes)
DownloadAnonFiles | ClickNUpload | DropAPK | Free | MultiUp
  • BdUpload
  • DownAce
  • Fichier
  • FileCloud
  • Filerio
  • FilesCdn
  • IndiShare
  • Kbagi
  • Turbobit
  • UpToBox
  • Uppit
| SolidFiles | ZippyShare
HashesCRC32: 5967F25C, MD5: 97A1FD51BCED48E92F9A490B2FC679B9, SHA1: FF0751EA6D0F4C4D271E90A243614F68A1503DAD, SHA256: 31DC0732ECD02AEA62DF0B6273ECCA18615CCA1AD05E58776923B7C607125BE4, ED2K: CADE17369A5B32F846B930E0D816A148
Screenshots
screenshotscreenshotscreenshotscreenshotscreenshot
SubtitlesAll Attachments | eng [ASS], Honorifics [enm, ASS]
Additional Info
General
Unique ID                                : 202751930265489586060340145318900857340 (0x988899F3E9A46D45DF931C4F8FC8F9FC)
Complete name                            : Made in Abyss - 10 [1920x1080].mkv
Format                                   : Matroska
Format version                           : Version 4
File size                                : 181 MiB
Duration                                 : 23 min 42 s
Overall bit rate                         : 1 068 kb/s
Writing application                      : Lavf58.45.100
Writing library                          : Lavf58.45.100
ErrorDetectionType                       : Per level 1
Attachments                              : CRONOSPRO-SEMIBOLD.TTF / CRONOSPRO-SEMIBOLDIT.TTF / DRIPDROP.TTF / KGSHADOWOFTHEDAY.TTF / PLAYTIMEWITHHOTTODDIES.TTF / SARUSRB.TTF

Video
ID                                       : 1
Format                                   : AV1
Format/Info                              : AOMedia Video 1
Codec ID                                 : V_AV1
Duration                                 : 23 min 42 s
Width                                    : 1 920 pixels
Height                                   : 1 080 pixels
Display aspect ratio                     : 16:9
Frame rate mode                          : Constant
Frame rate                               : 23.976 (24000/1001) FPS
Default                                  : Yes
Forced                                   : No
Color range                              : Limited

Audio
ID                                       : 2
Format                                   : Opus
Codec ID                                 : A_OPUS
Duration                                 : 23 min 42 s
Channel(s)                               : 2 channels
Channel layout                           : L R
Sampling rate                            : 48.0 kHz
Bit depth                                : 32 bits
Compression mode                         : Lossy
Delay relative to video                  : -7 ms
Writing library                          : Lavc58.91.100 libopus
Default                                  : Yes
Forced                                   : No

Text #1
ID                                       : 3
Format                                   : ASS
Codec ID                                 : S_TEXT/ASS
Codec ID/Info                            : Advanced Sub Station Alpha
Duration                                 : 23 min 42 s
Bit rate                                 : 439 b/s
Count of elements                        : 369
Compression mode                         : Lossless
Stream size                              : 76.1 KiB (0%)
Language                                 : English
Default                                  : Yes
Forced                                   : No

Text #2
ID                                       : 4
Format                                   : ASS
Codec ID                                 : S_TEXT/ASS
Codec ID/Info                            : Advanced Sub Station Alpha
Duration                                 : 23 min 42 s
Bit rate                                 : 439 b/s
Count of elements                        : 369
Compression mode                         : Lossless
Stream size                              : 76.1 KiB (0%)
Title                                    : Honorifics
Language                                 : enm
Default                                  : No
Forced                                   : No

Menu
00:00:00.833                             : :Intro
00:02:42.950                             : :OP
00:04:12.730                             : :Part A
00:10:47.800                             : :Part B
00:22:00.760                             : :ED
00:23:30.770                             : :Preview

Other Files in this Torrent
Made in Abyss - 10 [1920x1080].mkv
beta
Anime DDL+NZB mirror
Current Time: 14/06/2024 09:07



About/FAQs

Discord