File Size219.7 MB (230,395,430 bytes)
DownloadAnonFiles | ClickNUpload | DropAPK | Free | MultiUp
  • BdUpload
  • DownAce
  • Fichier
  • FileCloud
  • Filerio
  • FilesCdn
  • IndiShare
  • Kbagi
  • Turbobit
  • UpToBox
  • Uppit
| SolidFiles | ZippyShare
HashesCRC32: 3A13CD2C, MD5: 9CD0BCAB1B14901C9D8812EED98EFEA1, SHA1: B2A0BE8B42361F697A58DFD6F8B908BF92F7AB79, SHA256: 3EC9D0160FF4B3D4D57DA5A03F5B91B4F94B03B9F28999FB8DE0FFF441F97C38, ED2K: 3E129397AE03416E663F78B7E09D1616
Screenshots
screenshotscreenshotscreenshotscreenshotscreenshot
SubtitlesAll Attachments | eng [ASS], Honorifics [enm, ASS]
Additional Info
General
Unique ID                                : 277349904318049927578044005937440427118 (0xD0A7A6095530278A202DF993D34D0C6E)
Complete name                            : Made in Abyss - 12 [1920x1080].mkv
Format                                   : Matroska
Format version                           : Version 4
File size                                : 220 MiB
Duration                                 : 23 min 42 s
Overall bit rate                         : 1 296 kb/s
Writing application                      : Lavf58.45.100
Writing library                          : Lavf58.45.100
ErrorDetectionType                       : Per level 1
Attachments                              : CRONOSPRO-SEMIBOLD.TTF / CRONOSPRO-SEMIBOLDIT.TTF / DRIPDROP.TTF / KGSHADOWOFTHEDAY.TTF / PLAYTIMEWITHHOTTODDIES.TTF / SARUSRB.TTF

Video
ID                                       : 1
Format                                   : AV1
Format/Info                              : AOMedia Video 1
Codec ID                                 : V_AV1
Duration                                 : 23 min 42 s
Width                                    : 1 920 pixels
Height                                   : 1 080 pixels
Display aspect ratio                     : 16:9
Frame rate mode                          : Constant
Frame rate                               : 23.976 (24000/1001) FPS
Default                                  : Yes
Forced                                   : No
Color range                              : Limited

Audio
ID                                       : 2
Format                                   : Opus
Codec ID                                 : A_OPUS
Duration                                 : 23 min 42 s
Channel(s)                               : 2 channels
Channel layout                           : L R
Sampling rate                            : 48.0 kHz
Bit depth                                : 32 bits
Compression mode                         : Lossy
Delay relative to video                  : -7 ms
Writing library                          : Lavc58.91.100 libopus
Default                                  : Yes
Forced                                   : No

Text #1
ID                                       : 3
Format                                   : ASS
Codec ID                                 : S_TEXT/ASS
Codec ID/Info                            : Advanced Sub Station Alpha
Duration                                 : 23 min 40 s
Bit rate                                 : 450 b/s
Count of elements                        : 365
Compression mode                         : Lossless
Stream size                              : 77.9 KiB (0%)
Language                                 : English
Default                                  : Yes
Forced                                   : No

Text #2
ID                                       : 4
Format                                   : ASS
Codec ID                                 : S_TEXT/ASS
Codec ID/Info                            : Advanced Sub Station Alpha
Duration                                 : 23 min 40 s
Bit rate                                 : 450 b/s
Count of elements                        : 365
Compression mode                         : Lossless
Stream size                              : 77.9 KiB (0%)
Title                                    : Honorifics
Language                                 : enm
Default                                  : No
Forced                                   : No

Menu
00:00:00.833                             : :Intro
00:03:07.000                             : :OP
00:04:36.800                             : :Part A
00:15:16.770                             : :Part B
00:22:00.800                             : :ED
00:23:30.810                             : :Preview

Other Files in this Torrent
Made in Abyss - 12 [1920x1080].mkv
beta
Anime DDL+NZB mirror
Current Time: 14/06/2024 09:23



About/FAQs

Discord